<?xml version="1.0" standalone="no"?>
<!DOCTYPE svg PUBLIC "-//W3C//DTD SVG 1.1//EN" "http://www.w3.org/Graphics/SVG/1.1/DTD/svg11.dtd" >
<svg xmlns="http://www.w3.org/2000/svg">
<metadata>
<json>
<![CDATA[
{
	"fontFamily": "wojoicons",
	"fontURL": "http://www.wojoscripts.com",
	"designer": "wojoscripts",
	"designerURL": "http://www.wojoscripts.com",
	"license": "Apache License, Version 2.0",
	"licenseURL": "http://www.apache.org/licenses/LICENSE-2.0.html",
	"description": "Web Components Icon Font\nFont generated by IcoMoon.",
	"copyright": "wojoscripts",
	"majorVersion": 1,
	"minorVersion": 0,
	"version": "Version 1.0",
	"fontId": "wojoicons",
	"psName": "wojoicons",
	"subFamily": "Regular",
	"fullName": "wojoicons"
}
]]>
</json>
</metadata>
<defs>
<font id="wojoicons" horiz-adv-x="1024">
<font-face units-per-em="1024" ascent="960" descent="-64" />
<missing-glyph horiz-adv-x="1024" />
<glyph unicode="&#x20;" horiz-adv-x="512" d="" />
<glyph unicode="&#xe900;" glyph-name="agenda" data-tags="agenda" d="M896 896h-768c-35.4 0-64-28.6-64-64v-768c0-35.4 28.6-64 64-64h768c35.4 0 64 28.6 64 64v768c0 35.4-28.6 64-64 64zM832 128h-640v640h640v-640zM768 256l-152 128-168-128v448h320v-448z" />
<glyph unicode="&#xe901;" glyph-name="aid-kit" data-tags="aid.kit" d="M960 832h-896c-35.4 0-64-28.6-64-64v-640c0-35.4 28.6-64 64-64h896c35.4 0 64 28.6 64 64v640c0 35.4-28.6 64-64 64zM896 192h-768v512h768v-512zM704 384h-128v-128h-128v128h-128v128h128v128h128v-128h128v-128z" />
<glyph unicode="&#xe902;" glyph-name="anchor" d="M704 256c-15.6-55.4-65.6-100-128-118.6v246.6h128v128h-128v77.4c56.6 24.6 96 81 96 146.6 0 88.4-71.6 160-160 160s-160-71.6-160-160c0-65.6 39.6-122 96-146.6v-77.4h-128v-128h128v-246.6c-62.4 18.6-112.4 63.2-128 118.6h-128c21.2-144.6 158-256 320-256s298.8 111.4 320 256h-128zM512 800c35.2 0 64-28.8 64-64s-28.8-64-64-64-64 28.8-64 64 28.8 64 64 64z" />
<glyph unicode="&#xe903;" glyph-name="angle-double-down" d="M919.2 470l-407.2-407.2-407.2 407.2 91.2 91.2 316-317 316.2 317 91-91.2zM920 740.4l-408-408-408 408 91.2 91.2 316.8-317.4 316.8 317.4 91.2-91.2z" />
<glyph unicode="&#xe904;" glyph-name="angle-double-left" data-tags="angle.double.left" d="M534 855.2l-407.2-407.2 407.2-407.2 91.2 91.2-317 316 317 316.2-91.2 91zM804.4 856l-408-408 408-408 91.2 91.2-317.4 316.8 317.4 316.8-91.2 91.2z" />
<glyph unicode="&#xe905;" glyph-name="angle-double-right" d="M490 855.2l407.2-407.2-407.2-407.2-91.2 91.2 317 316-317 316.2 91.2 91zM219.6 856l408-408-408-408-91.2 91.2 317.4 316.8-317.4 316.8 91.2 91.2z" />
<glyph unicode="&#xe906;" glyph-name="angle-double-up" d="M919.2 426l-407.2 407.2-407.2-407.2 91.2-91.2 316 317 316.2-317 91 91.2zM920 155.6l-408 408-408-408 91.2-91.2 316.8 317.4 316.8-317.4 91.2 91.2z" />
<glyph unicode="&#xe907;" glyph-name="angle-down" d="M919.2 598l-407.2-407.2-407.2 407.2 91 91.2 316.2-316.8 316.2 316.8z" />
<glyph unicode="&#xe908;" glyph-name="angle-left" d="M662 40.8l-407.2 407.2 407.2 407.2 91.2-91-316.8-316.2 316.8-316.2z" />
<glyph unicode="&#xe909;" glyph-name="angle-right" d="M362 40.8l407.2 407.2-407.2 407.2-91.2-91 316.8-316.2-316.8-316.2z" />
<glyph unicode="&#xe90a;" glyph-name="angle-up" d="M919.2 298l-407.2 407.2-407.2-407.2 91-91.2 316.2 316.8 316.2-316.8z" />
<glyph unicode="&#xe90b;" glyph-name="antena" d="M841.6 882.6c-18 18-45 18-62.6 0-18-18-18-45 0-62.6 121-121 121-322.8 0-443.8-18-18-18-45 0-62.6 27-27 53.8-9 62.6 0 156.6 156.6 156.6 412 0 569zM245.2 819.6c18 18 18 45 0 62.6-18 18-45 18-62.6 0-156.8-156.8-156.8-412.4 0-569.4 9-9 36-22.4 62.6 0 18 18 18 45 0 62.6-125.6 121.4-125.6 323.2 0 444.2zM742.8 788.4c-18 18-45 18-62.6 0-18-18-18-45 0-62.6 71.6-71.6 71.6-183.8 0-255.6-18-18-18-45 0-62.6 27-27 53.8-9 62.6 0 107.6 102.8 107.6 273.2 0 380.8zM340 407.2c18 18 17.6 45-0.4 62.6-71.6 71.6-71.8 183.8-0.2 255.6 18 18 17.8 45 0 62.6-18 17.8-45 18-62.8 0-103-103-102.8-273.4 0.4-381.2 9-8.6 35-26.6 63 0.4v0zM768 128h-192v332.6c56 24.6 95.8 80.8 95.8 146.4 0 88.2-71.6 159.8-159.8 159.8s-159.8-71.4-159.8-159.8c0-65.4 39.8-121.8 95.8-146.4v-332.6h-192v-128h512v128zM512 670.8c35.2 0 63.8-28.8 63.8-63.8s-28.8-63.8-63.8-63.8-64 28.4-64 63.6 28.8 64 64 64z" />
<glyph unicode="&#xe90c;" glyph-name="app" d="M960 896h-896c-35.4 0-64-28.6-64-64v-768c0-35.4 28.6-64 64-64h896c35.4 0 64 28.6 64 64v768c0 35.4-28.6 64-64 64zM576 768v-128h-192v128h192zM128 768h128v-128h-128v128zM896 128h-768v384h768v-384zM896 640h-192v128h192v-128z" />
<glyph unicode="&#xe90d;" glyph-name="app-add" d="M1024 128h-128v-128h-128v128h-128v128h128v128h128v-128h128v-128zM576 128v-128h-512c-35.4 0-64 28.6-64 64v768c0 35.4 28.6 64 64 64h896c35.4 0 64-28.6 64-64v-384h-128v64h-768v-384h448zM704 640h192v128h-192v-128zM384 640h192v128h-192v-128zM128 640h128v128h-128v-128z" />
<glyph unicode="&#xe90e;" glyph-name="app-remove" d="M1024 192h-384v128h384v-128zM576 128v-128h-512c-35.4 0-64 28.6-64 64v768c0 35.4 28.6 64 64 64h896c35.4 0 64-28.6 64-64v-384h-128v64h-768v-384h448zM704 640h192v128h-192v-128zM384 640h192v128h-192v-128zM128 640h128v128h-128v-128z" />
<glyph unicode="&#xe90f;" glyph-name="checkbox-checkedalt" d="M896 896h-768c-35.2 0-64-28.8-64-64v-768c0-35.2 28.8-64 64-64h768c35.2 0 64 28.8 64 64v768c0 35.2-28.8 64-64 64zM832 128h-640v640h640v-640zM320 640h384v-384h-384v384z" />
<glyph unicode="&#xe910;" glyph-name="apps" d="M320 640h-256v256h256v-256zM960 896h-256v-256h256v256zM640 896h-256v-256h256v256zM320 256h-256v-256h256v256zM960 256h-256v-256h256v256zM640 256h-256v-256h256v256zM320 576h-256v-256h256v256zM960 576h-256v-256h256v256zM640 576h-256v-256h256v256z" />
<glyph unicode="&#xe911;" glyph-name="apps-alt" d="M384 320h256v256h-256v-256zM448 512h128v-128h-128v128zM384 0h256v256h-256v-256zM448 192h128v-128h-128v128zM64 0h256v256h-256v-256zM128 192h128v-128h-128v128zM64 640h256v256h-256v-256zM128 832h128v-128h-128v128zM64 320h256v256h-256v-256zM128 512h128v-128h-128v128zM384 640h256v256h-256v-256zM448 832h128v-128h-128v128zM704 0h256v256h-256v-256zM768 192h128v-128h-128v128zM704 896v-256h256v256h-256zM896 704h-128v128h128v-128zM704 320h256v256h-256v-256zM768 512h128v-128h-128v128z" />
<glyph unicode="&#xe912;" glyph-name="arrow-backward" d="M795 460.2c91-95 101-211.4 101-332.2 0 0-130 217.2-448 192v-192l-168.8 159.2-151.2 132.8 148.6 154.2 171.4 193.8v-192c74 3.4 241.2-5.2 347-115.8z" />
<glyph unicode="&#xe913;" glyph-name="arrow-forward" d="M229 460.2c-91-95-101-211.4-101-332.2 0 0 130 217.2 448 192v-192l168.8 159.2 151.2 132.8-148.6 154.2-171.4 193.8v-192c-74 3.4-241.2-5.2-347-115.8z" />
<glyph unicode="&#xe914;" glyph-name="arrows" d="M284 768l205.4-206.8-90.6-90.6-206.8 206.8v-165.4h-128v384c0 0 0 0 0 0h384v-128h-164zM576 896v-128h165.4l-206.8-206.8 90.6-90.6 206.8 206.8v-165.4h128v384h-384zM832 384v-165.4l-206.8 206.8-90.6-90.6 206.8-206.8h-165.4v-128h384v384h-128zM398 425.4l-206-206.8v165.4h-128v-384c0 0 0 0 0 0h384v128h-165.4l206.4 206.8-91 90.6z" />
<glyph unicode="&#xe915;" glyph-name="arrows-horizontal" d="M960.4 448l-271.6-271.6-90.6 90.6 117.2 117h-407l117.2-117-90.6-90.6-271.4 271.6 271.6 271.6 90.6-90.6-117.4-117h407.2l-117.2 117 90.6 90.6 271.4-271.6z" />
<glyph unicode="&#xe916;" glyph-name="arrows-vertical" d="M512 896.4l271.6-271.6-90.6-90.6-117 117.2v-407l117 117.2 90.6-90.6-271.6-271.4-271.6 271.6 90.6 90.6 117-117.4v407.2l-117-117.2-90.6 90.6 271.6 271.4z" />
<glyph unicode="&#xe917;" glyph-name="asterisk" d="M896 384h-229.4l162.2-162.2-90.6-90.6-162.2 162.2v-229.4h-128v229.4l-162.2-162.2-90.6 90.6 162.2 162.2h-229.4v128h229.4l-162.2 162.2 90.6 90.6 162.2-162.2v229.4h128v-229.4l162.2 162.2 90.6-90.6-162.2-162.2h229.4v-128z" />
<glyph unicode="&#xe918;" glyph-name="backward" d="M832 128v640h128v-640h-128zM640 128h128v640h-128v-640zM512 128v640l-448-320 448-320z" />
<glyph unicode="&#xe919;" glyph-name="badge" d="M884.6 667.4c-157.2 13.6-293 101.8-372.6 228.6-79.6-126.8-215.4-215-372.6-228.6-7.4-37.2-11.4-75.8-11.4-115.4 0-253.6 159.8-469.8 384-552 224.2 82.4 384 298.6 384 552 0 39.6-3.8 78.2-11.4 115.4zM683.6 285.8c-44.6-63.2-103.4-113.2-171.6-146.8-68.2 33.6-127 83.6-171.6 146.8-55.2 78-84.4 170-84.4 266.2 0 2.2 0 4.4 0 6.6 95 25.6 183 74 256 140 73-66.2 161-114.4 256-140 0-2.2 0-4.4 0-6.6 0-96.2-29.2-188.2-84.4-266.2zM602 400.4l21.2-124.6-111.2 59-111.2-58.8 21.2 124.6-90 88.2 124.4 18.2 55.6 113 55.6-113.2 124.4-18.2-90-88.2z" />
<glyph unicode="&#xe91a;" glyph-name="ban" d="M512 896c-247.4 0-448-200.6-448-448s200.6-448 448-448 448 200.6 448 448-200.6 448-448 448zM512 768c65.2 0 125.8-19.6 176.4-53.2l-443.2-443.2c-33.6 50.6-53.2 111.2-53.2 176.4 0 176.4 143.6 320 320 320zM512 128c-65.2 0-125.8 19.6-176.4 53.2l443.2 443.2c33.6-50.6 53.2-111.2 53.2-176.4 0-176.4-143.6-320-320-320z" />
<glyph unicode="&#xe91b;" glyph-name="bar-chart" d="M256 0h-256v896h256v-896zM512 576h-192v-576h192v576zM768 768h-192v-768h192v768zM1024 320h-192v-320h192v320z" />
<glyph unicode="&#xe91c;" glyph-name="bar-chart-alt" d="M256 0h-256v896h256v-896zM512 384h-192v-192h192v192zM512 576h-192v-128h192v128zM320 0h192v128h-192v-128zM768 768h-192v-128h192v128zM576 0h192v256h-192v-256zM768 576h-192v-256h192v256zM832 0h192v128h-192v-128zM1024 320h-192v-128h192v128z" />
<glyph unicode="&#xe91d;" glyph-name="basket" horiz-adv-x="1152" d="M1024 576l-96-384h-702l-66 384h290c0 0-50 62.8-50 128h-400l81.6-542.8c10.2-56.2 59-97.2 116.2-97.2h772.4c42.8 0 79.6 30.6 87.2 72.8l94.6 439.2h-128zM1152 640h-465.2c-22.2-38.2-63.4-64-110.8-64-70.6 0-128 57.4-128 128s57.4 128 128 128c47.4 0 88.6-25.8 110.8-64h465.2v-128zM384 256v0c-35.4 0-64 28.6-64 64v128c0 35.4 28.6 64 64 64v0c35.4 0 64-28.6 64-64v-128c0-35.4-28.6-64-64-64zM768 256v0c-35.4 0-64 28.6-64 64v128c0 35.4 28.6 64 64 64v0c35.4 0 64-28.6 64-64v-128c0-35.4-28.6-64-64-64zM576 256v0c-35.4 0-64 28.6-64 64v128c0 35.4 28.6 64 64 64v0c35.4 0 64-28.6 64-64v-128c0-35.4-28.6-64-64-64z" />
<glyph unicode="&#xe91e;" glyph-name="basketball" d="M462.2 449l-121.8 121.8c-44.8-40.6-95.8-72.6-151.8-95.2-40.2-16.2-82-27.4-124.6-33.2 1.2-101.6 36.8-202.8 106.8-285 0 0 291.4 291.6 291.4 291.6zM960 451c-0.6 103.4-37 206.6-108.8 289.6l-291.8-291.6 122.2-122.2c43.4 38.2 92.4 68.4 145.8 90 42.8 17.4 87.2 28.8 132.6 34.2zM291.8 619.6l-120 120c-56.8-66.2-91.2-145.2-103.2-226.8 80.6 13.6 158.2 49.2 223.2 106.8zM220.4 788l119-118.8c53.8 65 86.6 141.6 98 220.8-78-13.2-153.4-48-217-102v0zM681.8 229.6c-56.4-65.6-90.6-143.8-102.8-224.6 80.8 12.2 159 46.4 224.6 102.8 0 0-121.8 121.8-121.8 121.8zM960 448.2v0c0-0.2 0-0.2 0 0zM507.6 895.8c-5.2-46.4-16.8-92-34.6-135.6-20.8-51.2-49.2-98-84.8-139.8l122.6-122.6 291.6 291.4c-86.8 73.8-187.4 109.4-294.8 106.6 0 0 0 0 0 0zM730.4 278.2l121.8-121.8c56.4 65.6 90.6 143.8 102.8 224.6-80.8-12.2-159-46.4-224.6-102.8zM509 0c5.4 45.4 16.8 89.6 34.2 132.4 21.8 53.6 51.8 102.4 90 146l-122.2 122.2-291.8-291.8c83-71.8 186.2-108.2 289.8-108.8z" />
<glyph unicode="&#xe91f;" glyph-name="batery-empty" horiz-adv-x="1152" d="M1120 640h-96v64c0 35.4-28.6 64-64 64h-896c-35.4 0-64-28.6-64-64v-512c0-35.4 28.6-64 64-64h896c35.4 0 64 28.6 64 64v64h96c17.6 0 32 14.4 32 32v320c0 17.6-14.4 32-32 32zM896 256h-768v384h768v-384z" />
<glyph unicode="&#xe920;" glyph-name="batery-full" horiz-adv-x="1152" d="M1120 640h-96v64c0 35.4-28.6 64-64 64h-896c-35.4 0-64-28.6-64-64v-512c0-35.4 28.6-64 64-64h896c35.4 0 64 28.6 64 64v64h96c17.6 0 32 14.4 32 32v320c0 17.6-14.4 32-32 32zM896 256h-768v384h768v-384zM832 320h-640v256h448l192-256z" />
<glyph unicode="&#xe921;" glyph-name="batery20" horiz-adv-x="1152" d="M1120 640h-96v64c0 35.4-28.6 64-64 64h-896c-35.4 0-64-28.6-64-64v-512c0-35.4 28.6-64 64-64h896c35.4 0 64 28.6 64 64v64h96c17.6 0 32 14.4 32 32v320c0 17.6-14.4 32-32 32zM896 256h-768v384h768v-384zM512 320h-320v256h128l192-256z" />
<glyph unicode="&#xe922;" glyph-name="batery50" horiz-adv-x="1152" d="M1120 640h-96v64c0 35.4-28.6 64-64 64h-896c-35.4 0-64-28.6-64-64v-512c0-35.4 28.6-64 64-64h896c35.4 0 64 28.6 64 64v64h96c17.6 0 32 14.4 32 32v320c0 17.6-14.4 32-32 32zM896 256h-768v384h768v-384zM640 320h-448v256h256l192-256z" />
<glyph unicode="&#xe923;" glyph-name="bell" d="M895.6 128h-768.8c-27.6 0-52.6 18.2-59.6 45-7.2 27.2 3.8 57.2 27.6 71.8 4 3.2 28 23.6 52 71 24.8 49.2 52.6 106.2 52.6 248 0 183.6 128.4 332 312 332s312-148.4 312-332c0-141.8 29.8-199 54.6-248 24-47.4 48-68 52-71 25.2-15.6 34.8-44.4 25.2-72.8-8.4-25.8-32.6-44-59.6-44zM259.4 256h504c-46 89.8-67.8 171.6-67.8 307.2 0 113-71.2 204.8-184.2 204.8s-182-91.8-182-204.8c0-135.6-24-217.4-70-307.2zM639.4 32v0c0 17.6-14.4 32-32 32h-192c-17.6 0-32-14.4-32-32v0c0-17.6 14.4-32 32-32h192c17.6 0 32 14.4 32 32z" />
<glyph unicode="&#xe924;" glyph-name="binoculars" d="M899.2 529.8c-4.6 6-10 9.4-15.4 13.8l-75.4 63c0 0-0.2 0.2-0.2 0.2-27.6 19.6-60.4 32-95.8 35.4-1.8 0.2-2.8-1.4-1.6-2.6l-3.6 4c0 0 0 0 0.2 0l-41.8 41.6c-12.8 11.6-30 18.6-48.2 18.6-31 0-57.6-18.8-67.4-46.2-0.4-1.2-1.8-1.6-2.8-1-9.6 5.6-21.4 8.8-33.4 8.8-0.4 0-1.6 0-1.6 0v0c0 0-0.8 0-1 0-11.8 0-23.8-3.4-33.4-9-1-0.6-2.2-0.2-2.8 0.8-9.8 27.4-36.4 46-67.4 46-18.2 0-35.6-7.6-48.2-19.4l-41.8-42.6c0 0 0 0 0.2 0l-3.6-3.2c1.4 1.2 0.2 3.6-1.6 3.4-35.4-3.4-68-15.6-95.8-35.2 0 0-0.2 0-0.2-0.2l-75.8-62c-5.6-4.6-10.8-9-15.4-13.4-37.8-35.6-61.4-85.8-61.4-141.6 0-108.4 90-197 200-197 100 1.8 184 68.2 197.2 164.6 0.2 1.2 1.6 1.8 2.8 1.4 14-7.4 31-12.4 48-12.4 0.2 0-0.2 0.4 0 0.4v0c0.2 0 0.4 0 0.4 0 17.2 0 33.6 4.8 47.6 12.2 1.2 0.6 2.6-0.2 2.8-1.4 13-96.2 97-162.8 197.2-164.6 110.2 0 200 88.2 200 196.6 0 55.6-23.6 107-60.8 141v0zM271 294.4c-57.6 0-104.2 46-104.2 102.4s46.8 102.4 104.2 102.4 104.2-46 104.2-102.4-46.8-102.4-104.2-102.4zM512.6 396c-0.2 0-0.6 0-0.6 0v0c0 0-0.2 0-0.4 0-28.6 0-51.6 23.6-51.6 52 0 28.2 23.2 52 51.6 52 0.2 0 0.4 0 0.4 0v0c0.2 0 0.4 0 0.4 0 28.6 0 51.6-23.8 51.6-52 0.2-28.4-23-52-51.4-52zM753.2 294.4c-57.6 0-104.2 46-104.2 102.4s46.8 102.4 104.2 102.4 104.2-46 104.2-102.4-46.6-102.4-104.2-102.4z" />
<glyph unicode="&#xe925;" glyph-name="blackboard" d="M1024 704v64c0 35.4-28.6 64-64 64h-896c-35.4 0-64-28.6-64-64v-64h64v-512h-64v-64c0-35.4 28.6-64 64-64h896c35.4 0 64 28.6 64 64v64h-64v512h64zM832 192h-640v512h640v-512zM448 256v128h256v-128h-256z" />
<glyph unicode="&#xe926;" glyph-name="bluetooth" d="M476 896v-353.2l-144 143.8-53.8-54.2 181.8-181.4-182.6-183.2 54.4-53.6 144 144.4v-358.6l64.8 65.6 205.6 207-179 178.4 178.4 179-269.6 266zM552 714l86-84.2-86-86.4v170.6zM552 359.2l87-86.4-87-87.8v174.2z" />
<glyph unicode="&#xe927;" glyph-name="bluetooth-connected" d="M476 896v-353.2l-144 143.8-53.8-54.2 181.8-181.4-182.6-183.2 54.4-53.6 144 144.4v-358.6l64.8 65.6 205.6 207-179 178.4 178.4 179-269.6 266zM552 714l86-84.2-86-86.4v170.6zM552 359.2l87-86.4-87-87.8v174.2zM768 357.4l-90.6 90.6 90.6 90.6 90.6-90.6-90.6-90.6zM256 357.4l-90.6 90.6 90.6 90.6 90.6-90.6-90.6-90.6z" />
<glyph unicode="&#xe928;" glyph-name="bolt" d="M402.2 865.4l-192.2-447.4c-6.8-16.4 4.8-34 22.6-34h183.6l-136-367.2c-4.8-12.2 10.2-22.2 19.8-13.6l507.8 465.6c17 15 6.4 43-16.6 43h-248.6l198.6 346.8c9 16.6-3 37.2-21.6 37.2h-272c-20 0.2-37.4-11.8-45.4-30.4v0z" />
<glyph unicode="&#xe929;" glyph-name="book" d="M128 864v-160h-64v-64h192v64h-64v64h640v-640h-640v64h-64v-160c0-17.6 14.4-32 32-32h736c35.4 0 64 28.6 64 64v768c0 35.4-28.6 64-64 64h-736c-17.6 0-32-14.4-32-32zM320 704v-320h448v320h-448zM448 576h192v-64h-192v64zM128 576v-64h-64v-64h192v64h-64v64h-64zM128 384v-64h-64v-64h192v64h-64v64h-64z" />
<glyph unicode="&#xe92a;" glyph-name="bookmark" d="M896 896h-768c-35.4 0-64-28.6-64-64v-768c0-35.4 28.6-64 64-64h768c35.4 0 64 28.6 64 64v768c0 35.4-28.6 64-64 64zM192 128v640h128v-640h-128zM832 128h-448v640h128v-512l128 128 128-128v512h64v-640z" />
<glyph unicode="&#xe92b;" glyph-name="spinner-full" d="M926.592 368.384c-17.792-11.584-33.024-9.024-42.624-4.608-22.592 10.176-38.016 40.192-41.6 64.384-2.368 17.024-3.2 33.984-4.032 50.624-0.768 20.416-1.792 41.6-6.208 62.208-9.216 44.032-27.2 86.4-51.776 122.624-96.192 141.184-302.592 182.784-460.416 92.992-145.792-83.008-221.184-255.168-183.616-418.816 35.008-152 162.624-272.192 317.632-299.2 141.568-24.576 281.024 38.016 383.616 171.584 2.624 3.392 7.616 4.224 11.008 1.6v0c3.584-2.624 4.416-7.616 1.984-11.2-52.992-75.584-120.768-133.184-196.608-166.784-50.816-22.592-104.384-33.792-158.784-33.792-34.816 0-70.016 4.608-104.768 14.016-77.568 20.8-148.416 62.976-204.416 122.176-55.616 58.816-94.4 131.584-112 210.368-35.584 160.384 22.784 332.992 148.8 440 65.216 55.424 145.408 91.392 231.808 104.192 87.168 12.992 174.208 1.216 251.776-34.176 71.616-32.576 133.376-86.4 178.624-155.392 44.416-67.776 70.016-145.792 73.792-225.6 2.176-32.768 5.184-82.816-32.192-107.2z" />
<glyph unicode="&#xe92c;" glyph-name="briefcase" d="M960 768h-256v96c0 17.6-14.4 32-32 32h-320c-17.6 0-32-14.4-32-32v-96h-256c-35.4 0-64-28.6-64-64v-640c0-35.4 28.6-64 64-64h896c35.4 0 64 28.6 64 64v640c0 35.4-28.6 64-64 64zM386 832h254v-64h-254v64zM896 128h-768v256h256v-64h256v64h256v-256zM896 448h-768v192h768v-192z" />
<glyph unicode="&#xe92d;" glyph-name="briefcase-alt" d="M384 384v64h256v-128h-256v64zM1024 704v-640c0-35.4-28.6-64-64-64h-896c-35.4 0-64 28.6-64 64v640c0 35.4 28.6 64 64 64h256v96c0 17.6 14.4 32 32 32h320c17.6 0 32-14.4 32-32v-96h256c35.4 0 64-28.6 64-64zM386 768h254v64h-254v-64zM320 640v-512h384v512h-384zM128 128h128v512h-128v-512zM896 640h-128v-512h128v512z" />
<glyph unicode="&#xe92e;" glyph-name="storage" d="M960 896h-896c-35.2 0-64-28.8-64-64v-768c0-35.2 28.8-64 64-64h896c35.2 0 64 28.8 64 64v768c0 35.2-28.8 64-64 64zM128 768h768v-192h-768v192zM896 512v-128h-768v128h768zM128 128v192h768v-192h-768zM192 704h256v-64h-256v64zM830.6 672c0-17.6-14.4-32-32-32s-32 14.4-32 32 14.4 32 32 32 32-14.4 32-32zM192 256h256.6v-64h-256.6v64zM832 224c0-17.6-14.4-32-32-32-17.8 0-32 14.4-32 32s14.4 32 32 32 32-14.4 32-32z" />
<glyph unicode="&#xe92f;" glyph-name="bag" d="M832 640h-62c0 141.4-114.6 256-256 256h-4c-141.4 0-256-114.6-256-256v0h-62c-35.2 0-64-28.8-64-64v-480c0-52.8 43.2-96 96-96h576c52.8 0 96 43.2 96 96v480c0 35.2-28.8 64-64 64zM384 384h-128v128h128v-128zM384 640c0 70.6 57.4 128 128 128v0c70.6 0 128-57.4 128-128v0h-256zM768 384h-128v128h128v-128z" />
<glyph unicode="&#xe930;" glyph-name="basket-alt" d="M960 512h-896c-35.4 0-64-28.6-64-64v0c0-35.4 28.6-64 64-64v0l55-330.6c5.2-30.8 31.8-53.4 63.2-53.4h659.6c31.2 0 58 22.6 63.2 53.4l55 330.6c35.4 0 64 28.6 64 64v0c0 35.4-28.6 64-64 64zM241 98.2v0c-17.4-3-34 8.6-37 26l-39 220.6c-3 17.4 8.6 34 26 37v0c17.4 3 34-8.6 37-26l38.8-220.6c3.2-17.4-8.4-34-25.8-37zM448 124c0-17.6-14.4-32-32-32s-32 14.4-32 32v224c0 17.6 14.4 32 32 32s32-14.4 32-32v-224zM640 128c0-17.6-14.4-32-32-32s-32 14.4-32 32v224c0 17.6 14.4 32 32 32s32-14.4 32-32v-224zM851 344.8l-39-220.6c-3-17.4-19.6-29-37-26s-29 19.6-26 37l39 220.6c3 17.4 19.6 29 37 26s29-19.6 26-37zM864 800v0c-4.6 36.6-35.6 64-72.4 64h-151.6c0 17.6-14.4 32-32 32h-192c-17.6 0-32-14.4-32-32h-149.2c-37.4 0-69-27.2-74.8-64v0l-32-256h64l32 256h160c0-17.6 14.4-32 32-32h192c17.6 0 32 14.4 32 32h160l32-256h64l-32 256z" />
<glyph unicode="&#xe931;" glyph-name="brightness" d="M832 576v192h-192l-128 128-128-128h-192v-192l-128-128 128-128v-192h192l128-128 128 128h192v192l128 128-128 128zM512 192v512c141.4 0 256-114.6 256-256s-114.6-256-256-256z" />
<glyph unicode="&#xe932;" glyph-name="brightness-alt" d="M832 576v192h-192l-128 128-128-128h-192v-192l-128-128 128-128v-192h192l128-128 128 128h192v192l128 128-128 128zM512 192c-141.4 0-256 114.6-256 256s114.6 256 256 256 256-114.6 256-256-114.6-256-256-256zM640 448c0-70.6-57.4-128-128-128s-128 57.4-128 128 57.4 128 128 128 128-57.4 128-128z" />
<glyph unicode="&#xe933;" glyph-name="brush" d="M960 720c0 46.4-13.4 92.4-49.2 125-31.4 32.4-70 51-114.8 51-49.2 0-95.8-23.2-127.2-60.2l-336-417.8c-4.4 0-4.4 0-9 0-49.2 0-94-18.6-125.4-55.8-35.8-37.2-35.8-79-35.8-120.8s0-92.8-44.8-162.6l-53.8-78.8 94 9.2c40.4 4.6 233 27.8 291.2 92.8 35.8 37.2 53.8 92.8 53.8 144l398.8 352.8c35.8 28 58.2 74.8 58.2 121.2v0zM386.6 167.2c-18-18.6-85.2-37.2-156.8-51 18 51 18 97.4 18 130 0 37.2 0 46.4 9 55.8 18 18.6 40.4 27.8 62.8 27.8s44.8-9.2 62.8-27.8c18-18.6 26.8-41.8 26.8-65 4.2-28-4.8-51.4-22.6-69.8v0zM843.6 668.6l-372-329.6c-4.4 9.2-13.4 18.6-18 23.2-9 9.2-18 14-22.4 18.6v0l313.6 390c26.8 32.4 76.2 32.4 103 4.6 13.4-14 22.4-32.4 22.4-55.8-4.2-18.6-13.2-37.2-26.6-51v0z" />
<glyph unicode="&#xe934;" glyph-name="contacts" d="M832 896h-640v-64h640v64zM192 0h640v64h-640v-64zM832 768h-640c-35.4 0-64-28.6-64-64v-512c0-35.4 28.6-64 64-64h640c35.4 0 64 28.6 64 64v512c0 35.4-28.6 64-64 64zM512 640c53 0 96-43 96-96s-43-96-96-96-96 43-96 96c0 53 43 96 96 96zM704 256h-384v58c0 62.4 129.6 102 192 102s192-41.6 192-104v-56z" />
<glyph unicode="&#xe935;" glyph-name="bubble" data-tags="bubble" d="M512 896c-282.8 0-512-157.6-512-352 0-130.2 103-244 256-304.8v-239.2l256 192c282.8 0 512 157.6 512 352s-229.2 352-512 352zM801.6 400.6c-74.4-51.2-180-80.6-289.6-80.6h-42.6l-85.4-64v70l-80.6 32c-57.2 22.8-104.2 54.2-135.6 90.8-26.4 30.8-39.8 62.8-39.8 95.2 0 68.2 59.2 119.2 94.4 143.4 74.6 51.2 180 80.6 289.6 80.6s215-29.4 289.6-80.6c35.2-24.2 94.4-75.2 94.4-143.4s-59.2-119.2-94.4-143.4v0z" />
<glyph unicode="&#xe936;" glyph-name="building" data-tags="building" d="M832 64v768c0 35.4-28.6 64-64 64h-512c-35.4 0-64-28.6-64-64v-768h-128v-64h896v64h-128zM320 768h128v-128h-128v128zM320 512h128v-128h-128v128zM640 64h-256v192h256v-192zM704 384h-128v128h128v-128zM704 640h-128v128h128v-128z" />
<glyph unicode="&#xe937;" glyph-name="burger" data-tags="burger" d="M896 576h-768c0 141.4 98.2 256 219.4 256h329.2c121.2 0 219.4-114.6 219.4-256v0zM896 192v64h-768v-64c0-70.6 49.2-128 109.8-128h548.6c60.4 0 109.6 57.4 109.6 128zM813.8 512h-27.4l-109.8-128-109.8 128h-356.6c-45.4 0-82.2-43-82.2-96v0c0-53 36.8-96 82.2-96h603.4c45.4 0 82.2 43 82.2 96v0c0.2 53-36.6 96-82 96z" />
<glyph unicode="&#xe938;" glyph-name="bus" data-tags="bus" d="M512 896c-208.4 0-384-23.6-384-188.6v-471.6c0-41.4 36-80.8 64-106.6v-97.2c0-17.6 14.4-32 32-32h64c17.6 0 32 14.4 32 32v96h384v-96c0-17.6 14.4-32 32-32h64c17.6 0 32 14.4 32 32v95.2c28 26 64 67.2 64 108.6v471.6c0 165-175.6 188.6-384 188.6zM320 191.4c-35.4 0-64 28.6-64 64s28.6 64 64 64 64-28.6 64-64c0-35.4-28.6-64-64-64zM704 191.4c-35.4 0-64 28.6-64 64s28.6 64 64 64c35.4 0 64-28.6 64-64s-28.6-64-64-64zM768 448h-512v256h512v-256z" />
<glyph unicode="&#xe939;" glyph-name="cake" data-tags="cake" d="M511.6 896c-11 0-21.4-4-29.6-11.2l-402-358.4c-10.2-9.2-16-22.2-16-35.8v-426.6c0-35.4 28.6-64 64-64h768c35.4 0 64 28.6 64 64v432c-0.4 181.6-207 400-448.4 400zM541.6 766.4c69.4-7.6 139.6-41.4 196.8-95.4 30.6-28.8 55.4-62.2 71.8-95h-482.2l213.6 190.4zM832 448v-128h-640v128h640zM192 128v64h640v-64h-640z" />
<glyph unicode="&#xe93a;" glyph-name="calculator" data-tags="calculator" d="M832 896h-640c-35.4 0-64-28.6-64-64v-768c0-35.4 28.6-64 64-64h640c35.4 0 64 28.6 64 64v768c0 35.4-28.6 64-64 64zM768 128h-512v640h512v-640zM704 576h-384v128h384v-128zM448 192h-128v128h128v-128zM448 384h-128v128h128v-128zM704 192h-128v128h128v-128zM704 384h-128v128h128v-128z" />
<glyph unicode="&#xe93b;" glyph-name="calendar" data-tags="calendar" d="M832 768v128h-128v-128h-384v128h-128v-128h-64c-35.4 0-64-28.6-64-64v-640c0-35.4 28.6-64 64-64h768c35.4 0 64 28.6 64 64v640c0 35.4-28.6 64-64 64h-64zM832 128h-640v448h640v-448zM384 384h-128v128h128v-128zM576 384h-128v128h128v-128zM768 384h-128v128h128v-128zM384 192h-128v128h128v-128zM576 192h-128v128h128v-128z" />
<glyph unicode="&#xe93c;" glyph-name="calendar-add" data-tags="calendar.add" d="M1024 128h-128v-128h-128v128h-128v128h128v128h128v-128h128v-128zM192 384h128v128h-128v-128zM192 192h128v128h-128v-128zM128 128v448h640v-128h128v256c0 35.4-28.6 64-64 64h-64v128h-128v-128h-384v128h-128v-128h-64c-35.4 0-64-28.6-64-64v-640c0-35.4 28.6-64 64-64h512v128h-448zM384 192h128v128h-128v-128zM576 384h128v128h-128v-128zM384 384h128v128h-128v-128z" />
<glyph unicode="&#xe93d;" glyph-name="calendar-alt" data-tags="calendar.alt" d="M832 768v128h-128v-128h-384v128h-128v-128h-64c-35.4 0-64-28.6-64-64v-640c0-35.4 28.6-64 64-64h768c35.4 0 64 28.6 64 64v640c0 35.4-28.6 64-64 64h-64zM832 128h-640v512h640v-512zM512 448h-128v128h256v-384h-128v256z" />
<glyph unicode="&#xe93e;" glyph-name="calendar-remove" data-tags="calendar.remove" d="M1024 192h-384v128h384v-128zM192 384h128v128h-128v-128zM192 192h128v128h-128v-128zM128 128v448h640v-128h128v256c0 35.4-28.6 64-64 64h-64v128h-128v-128h-384v128h-128v-128h-64c-35.4 0-64-28.6-64-64v-640c0-35.4 28.6-64 64-64h512v128h-448zM384 192h128v128h-128v-128zM576 384h128v128h-128v-128zM384 384h128v128h-128v-128z" />
<glyph unicode="&#xe93f;" glyph-name="camera" data-tags="camera" horiz-adv-x="1280" d="M640 576c-106 0-192-86-192-192s86-192 192-192 192 86 192 192-86 192-192 192zM640 320c-35.2 0-64 28.8-64 64s28.8 64 64 64 64-28.8 64-64-28.8-64-64-64zM1024 576c35.4 0 64-28.6 64-64s-28.6-64-64-64-64 28.6-64 64 28.6 64 64 64zM1216 768h-64v128h-320v-128h-768c-35.4 0-64-28.6-64-64v-640c0-35.4 28.6-64 64-64h1152c35.4 0 64 28.6 64 64v640c0 35.4-28.6 64-64 64zM1152 128h-1024v512h1024v-512z" />
<glyph unicode="&#xe940;" glyph-name="camera-alt" data-tags="camera.alt" horiz-adv-x="1280" d="M1088 640h-256v64h256v-64zM1280 832v-768c0-35.4-28.6-64-64-64h-1152c-35.4 0-64 28.6-64 64v768c0 35.4 28.6 64 64 64h1152c35.4 0 64-28.6 64-64zM864 288c0 123.8-100.2 224-224 224s-224-100.2-224-224 100.2-224 224-224 224 100.2 224 224zM1152 768h-1024v-192h1024v192zM640 448c-88.2 0-160-71.8-160-160s71.8-160 160-160 160 71.8 160 160-71.8 160-160 160z" />
<glyph unicode="&#xe941;" glyph-name="car" data-tags="car" d="M939.6 586.8l-81.8 12.2-54.4 109c-4 6.8-34 38.2-69.4 43.6-68 9.6-145.8 16.4-222 16.4-77.6 0-153.8-6.8-223.4-16.4-35.4-5.4-64-36.8-68-43.6l-54.4-108.8-81.8-12.2c-9.6-1.4-20.4-9.6-20.4-19v-20.4c0-9.6 7.8-19.4 16-19.4h48c-8.2-8-50.6-34-52-128 0-79 0-168.4 0-246 0-15 13-26 28-26h118c13.6 0 26 10.4 26 25.4 0 9.6 0 23.2 0 32.6 86-5.4 175.4-7.4 264-6 88.6-1.4 176 0.6 264 6 0-9.6 0-23.2 0-32.6 0-15 14.4-25.4 28-25.4h116c15 0 26 10.4 26 25.4 0 77.6 0 168 0 247-2 94-42.4 123.6-52 131.6h50c9.6 0 16 5.8 16 15.4v20.4c0 9.4-10.8 17.6-20.4 18.8v0zM256 320c-35.4 0-64 28.6-64 64s28.6 64 64 64 64-28.6 64-64-28.6-64-64-64zM768 320c-35.4 0-64 28.6-64 64s28.6 64 64 64 64-28.6 64-64-28.6-64-64-64z" />
<glyph unicode="&#xe942;" glyph-name="cd" data-tags="cd" d="M512 896c-247.4 0-448-200.6-448-448s200.6-448 448-448 448 200.6 448 448-200.6 448-448 448zM512 128c-176.4 0-320 143.6-320 320s143.6 320 320 320 320-143.6 320-320-143.6-320-320-320zM689.4 374.6l59.2-24.4c-25-60.6-73.2-111.6-138.4-138.6l-24.6 59.2c48.8 20.2 85 58.4 103.8 103.8v0zM334.6 521.4l-59.2 24.4c25 60.6 73.2 111.6 138.4 138.6l24.6-59.2c-48.8-20.2-85-58.4-103.8-103.8v0zM512 576c-70.6 0-128-57.4-128-128s57.4-128 128-128 128 57.4 128 128-57.4 128-128 128zM512 416c-17.6 0-32 14.4-32 32s14.4 32 32 32 32-14.4 32-32-14.4-32-32-32z" />
<glyph unicode="&#xe943;" glyph-name="certificate" data-tags="certificate" d="M704 640h-384v64h384v-64zM704 576h-384v-64h384v64zM960 832v-576c0-35.4-28.6-64-64-64h-256v-192l-128 128-128-128v192h-256c-35.4 0-64 28.6-64 64v576c0 35.4 28.6 64 64 64h768c35.4 0 64-28.6 64-64zM832 768h-640v-448h192v128h256v-128h192v448z" />
<glyph unicode="&#xe944;" glyph-name="check" data-tags="check" d="M919.2 651.6l-497.8-497.8-316.6 316.8 90.6 90.6 226.2-226.2 407.2 407.2 90.4-90.6z" />
<glyph unicode="&#xe945;" glyph-name="check-all" data-tags="check.all" d="M557.2 448l-90.6 90.6 181 181 90.6-90.6-181-181zM919.2 719.6l-362-362-181 181-90.4-90.6 271.6-271.6 452.6 452.6-90.8 90.6zM104.8 538.6l-90.6-90.6 271.6-271.6 90.6 90.6-271.6 271.6z" />
<glyph unicode="&#xe946;" glyph-name="checkbox" data-tags="checkbox" d="M896 896h-768c-35.2 0-64-28.8-64-64v-768c0-35.2 28.8-64 64-64h768c35.2 0 64 28.8 64 64v768c0 35.2-28.8 64-64 64zM832 128h-640v640h640v-640z" />
<glyph unicode="&#xe947;" glyph-name="checkbox-checked" data-tags="checkbox.checked" d="M832 512h128v-448c0-35.2-28.8-64-64-64h-768c-35.2 0-64 28.8-64 64v768c0 35.2 28.8 64 64 64h576v-128h-512v-640h640v384zM869 799.6l-362-362-135.8 135.8-90.6-90.6 226.2-226.2 452.6 452.6-90.4 90.4z" />
<glyph unicode="&#xe948;" glyph-name="chevron-down" data-tags="chevron.down" d="M828.8 573.2l-316.8-316.8-316.8 316.8 90.6 90.6 226.2-226.4 226.2 226.2 90.6-90.4z" />
<glyph unicode="&#xe949;" glyph-name="chevron-left" data-tags="chevron.left" d="M637.2 764.8l-316.8-316.8 316.8-316.8 90.6 90.6-226.4 226.2 226.2 226.2-90.4 90.6z" />
<glyph unicode="&#xe94a;" glyph-name="chevron-right" data-tags="chevron.right" d="M386.8 764.8l316.8-316.8-316.8-316.8-90.6 90.6 226.4 226.2-226.2 226.2 90.4 90.6z" />
<glyph unicode="&#xe94b;" glyph-name="chevron-up" data-tags="chevron.up" d="M828.8 322.8l-316.8 316.8-316.8-316.8 90.6-90.6 226.2 226.4 226.2-226.2 90.6 90.4z" />
<glyph unicode="&#xe94c;" glyph-name="circle-check" data-tags="circle.check" d="M512 896c-247.4 0-448-200.6-448-448s200.6-448 448-448 448 200.6 448 448-200.6 448-448 448zM512 128c-176.4 0-320 143.6-320 320s143.6 320 320 320 320-143.6 320-320-143.6-320-320-320zM647.8 618l90.6-90.6-271.6-271.4-181.2 181.2 90.6 90.6 90.6-90.6 181 180.8z" />
<glyph unicode="&#xe94d;" glyph-name="circle-chevron-down" data-tags="circle.chevron.down" d="M512 896c-247.4 0-448-200.6-448-448s200.6-448 448-448 448 200.6 448 448-200.6 448-448 448zM512 128c-176.4 0-320 143.6-320 320s143.6 320 320 320 320-143.6 320-320-143.6-320-320-320zM670.4 597.6l90.4-90.4-248.8-249-249 249 90.6 90.6 158.4-158.4 158.4 158.2z" />
<glyph unicode="&#xe94e;" glyph-name="circle-chevron-left" data-tags="circle.chevron.left" d="M960 448c0 247.4-200.6 448-448 448s-448-200.6-448-448 200.6-448 448-448 448 200.6 448 448zM192 448c0 176.4 143.6 320 320 320s320-143.6 320-320-143.6-320-320-320-320 143.6-320 320zM661.6 289.6l-90.4-90.4-249 248.8 249 249 90.6-90.6-158.4-158.4 158.2-158.4z" />
<glyph unicode="&#xe94f;" glyph-name="circle-chevron-right" data-tags="circle.chevron.right" d="M64 448c0-247.4 200.6-448 448-448s448 200.6 448 448-200.6 448-448 448-448-200.6-448-448zM832 448c0-176.4-143.6-320-320-320s-320 143.6-320 320 143.6 320 320 320 320-143.6 320-320zM362.4 606.4l90.4 90.4 249-248.8-249-249-90.6 90.6 158.4 158.4-158.2 158.4z" />
<glyph unicode="&#xe950;" glyph-name="circle-chevron-up" data-tags="circle.chevron.up" d="M512 0c-247.4 0-448 200.6-448 448s200.6 448 448 448 448-200.6 448-448-200.6-448-448-448zM512 768c-176.4 0-320-143.6-320-320s143.6-320 320-320 320 143.6 320 320-143.6 320-320 320zM670.4 298.4l90.4 90.4-248.8 249-249-249 90.6-90.6 158.4 158.4 158.4-158.2z" />
<glyph unicode="&#xe951;" glyph-name="circle-delete" data-tags="circle.delete" d="M512 896c-247.4 0-448-200.6-448-448s200.6-448 448-448 448 200.6 448 448-200.6 448-448 448zM512 128c-176.4 0-320 143.6-320 320s143.6 320 320 320 320-143.6 320-320-143.6-320-320-320zM512 538.6l90.6 90.6 90.6-90.6-90.6-90.6 90.6-90.6-90.6-90.6-90.6 90.6-90.6-90.6-90.6 90.6 90.6 90.6-90.6 90.6 90.6 90.6 90.6-90.6z" />
<glyph unicode="&#xe952;" glyph-name="circle-minus" data-tags="circle.minus" d="M512 896c-247.4 0-448-200.6-448-448s200.6-448 448-448 448 200.6 448 448-200.6 448-448 448zM512 128c-176.4 0-320 143.6-320 320s143.6 320 320 320 320-143.6 320-320-143.6-320-320-320zM320 384v128h384v-128h-384z" />
<glyph unicode="&#xe953;" glyph-name="circle-plus" data-tags="circle.plus" d="M576 512h128v-128h-128v-128h-128v128h-128v128h128v128h128v-128zM960 448c0-247.4-200.6-448-448-448s-448 200.6-448 448 200.6 448 448 448 448-200.6 448-448zM832 448c0 176.4-143.6 320-320 320s-320-143.6-320-320 143.6-320 320-320 320 143.6 320 320z" />
<glyph unicode="&#xe954;" glyph-name="clipboard" data-tags="clipboard" d="M704 832v64h-384v-64h-128c-35.4 0-64-28.6-64-64v-704c0-35.4 28.6-64 64-64h640c35.4 0 64 28.6 64 64v704c0 35.4-28.6 64-64 64h-128zM448 768h128v-64h-128v64zM768 128h-512v576h64v-128h384v128h64v-576zM704 384h-384v64h384v-64zM704 256h-384v64h384v-64z" />
<glyph unicode="&#xe955;" glyph-name="clipboard-alt" data-tags="clipboard.alt" d="M832 768h-137c-26.2 74.6-97.4 128-181 128s-154.8-53.4-181-128h-141c-35.4 0-64-28.6-64-64v-640c0-35.4 28.6-64 64-64h640c35.4 0 64 28.6 64 64v640c0 35.4-28.6 64-64 64zM514 800c28.4 0 53.8-12.4 71.4-32h-143c17.8 19.6 43.2 32 71.6 32v0zM768 128h-512v512h64v-64h384v64h64v-512z" />
<glyph unicode="&#xe956;" glyph-name="clock" data-tags="clock" d="M512 896c-247.4 0-448-200.6-448-448s200.6-448 448-448 448 200.6 448 448-200.6 448-448 448zM512 128c-176.4 0-320 143.6-320 320s143.6 320 320 320 320-143.6 320-320-143.6-320-320-320zM704 448v-128h-256v320h128v-192h128z" />
<glyph unicode="&#xe957;" glyph-name="close" data-tags="close" d="M602.6 448l135.8-135.8-90.6-90.6-135.8 135.8-135.8-135.8-90.6 90.6 135.8 135.8-135.8 135.8 90.6 90.6 135.8-135.8 135.8 135.8 90.6-90.6-135.8-135.8z" />
<glyph unicode="&#xe958;" glyph-name="cloud-download" data-tags="cloud.download" horiz-adv-x="1280" d="M866.2 418l-226.2-226-226.2 226.2 90.6 90.6 71.8-71.8v203h128v-202.8l72 71.6 90-90.8zM1280 263.6c0-145.4-124.6-263.6-278.2-263.6h-681.8c-176.2 0-320 136.2-320 303 0 147.2 111.8 269 259.2 296 14.6 69.2 48.8 135.6 105.2 189 76 72 176 107.8 275.6 107.8s199.4-36 275.2-107.8c76.6-72.6 112.4-168.2 111.8-263.6 141.4-12 253-123.8 253-260.8v0zM1152.2 263.6c0 41.4-20.2 70.6-37 87.8-25.6 26.2-60.8 42.4-99.2 45.6-66.4 5.8-117.4 61.6-117 128.4 0.4 65.2-25 125.4-71.8 169.8-49.4 47-115.8 72.8-187 72.8-71.4 0-138-25.8-187.6-72.8-34.6-32.6-58-75-68-122.4-10.6-50.8-51-90.2-102.2-99.6-89.6-16.4-154.4-88-154.4-170.2 0-45.2 19.2-88.2 54-121.2 36.6-34.8 85.8-53.8 138-53.8h682c82.8 0 150.2 60.8 150.2 135.6v0z" />
<glyph unicode="&#xe959;" glyph-name="cloud-upload" data-tags="cloud.upload" horiz-adv-x="1280" d="M413.8 414l226.2 226 226.2-226.4-90.6-90.6-71.6 71.8v-202.8h-128v202.8l-72-71.6-90.2 90.8zM1280 263.6c0-145.4-124.6-263.6-278.2-263.6h-681.8c-176.2 0-320 136.2-320 303 0 147.2 111.8 269 259.2 296 14.6 69.2 48.8 135.6 105.2 189 76 72 176 107.8 275.6 107.8s199.4-36 275.2-107.8c76.6-72.6 112.4-168.2 111.8-263.6 141.4-12 253-123.8 253-260.8v0zM1152.2 263.6c0 41.4-20.2 70.6-37 87.8-25.6 26.2-60.8 42.4-99.2 45.6-66.4 5.8-117.4 61.6-117 128.4 0.4 65.2-25 125.4-71.8 169.8-49.4 47-115.8 72.8-187 72.8-71.4 0-138-25.8-187.6-72.8-34.6-32.6-58-75-68-122.4-10.6-50.8-51-90.2-102.2-99.6-89.6-16.4-154.4-88-154.4-170.2 0-45.2 19.2-88.2 54-121.2 36.6-34.8 85.8-53.8 138-53.8h682c82.8 0 150.2 60.8 150.2 135.6v0z" />
<glyph unicode="&#xe95a;" glyph-name="code" data-tags="code" d="M562 448l-407.2-407.2-90.6 90.6 316.8 316.6-316.8 316.8 90.6 90.6 407.2-407.4zM960 64v128h-512v-128h512z" />
<glyph unicode="&#xe95b;" glyph-name="code-alt" data-tags="code.alt" d="M1025 448l-271.6-271.6-90.6 90.6 181.2 181-181 181 90.6 90.6 271.4-271.6zM-1 448l271.6-271.6 90.6 90.6-181.2 181 181 181-90.6 90.6-271.4-271.6zM628.8 819.4l-126.8 17.8-106.8-760.6 126.8-17.8 106.8 760.6z" />
<glyph unicode="&#xe95c;" glyph-name="cogs" data-tags="cogs" d="M960 224v128h-73.2c-4.4 14-10.4 29.2-17.6 42.6l51.8 51.8-90.6 90.6-51.8-51.8c-13.4 7.2-28.6 13.2-42.6 17.6v73.2h-128v-73.2c-14-4.4-29.2-10.4-42.6-17.6l-51.8 51.8-90.6-90.6 51.8-51.8c-7.2-13.4-13.2-26.6-17.6-42.6h-73.2v-128h73.2c4.4-14 10.4-29.2 17.6-42.6l-51.8-51.8 90.6-90.6 51.8 51.8c13.4-7.2 26.6-13.2 42.6-17.6v-73.2h128v73.2c14 4.4 29.2 10.4 42.6 17.6l51.8-51.8 90.6 90.6-51.8 51.8c7.2 13.4 13.2 28.6 17.6 42.6h73.2zM672 192c-53 0-96 43-96 96s43 96 96 96 96-43 96-96-43-96-96-96zM326.2 412c-42.4 28-70.2 77.2-70.2 132.2 0 88.2 71.8 159.8 160 159.8 55 0 103.6-27.8 132.4-70.2 19.2 4 39.2 6.2 59.6 6.2 29 0 57.2-4.4 83.6-12.4-7.6 24.8-18.2 48.2-31.8 69.6l50.4 50.4-90.6 90.6-50.4-50.4c-27 17-57.2 29.8-89.2 37v71.2h-128v-71.2c-32-7.2-62.2-20-89.4-37l-50.2 50.4-90.6-90.6 50.4-50.2c-17-27-29.8-57.4-37-89.4h-71.2v-128h71.2c7.2-32 20-62.2 37-89.4l-50.4-50.6 90.6-90.6 50.4 50.4c21.4-13.6 44.8-24.2 69.6-31.8-8 26.4-12.4 54.8-12.4 83.8 0 20.8 2.2 40.2 6.2 60.2v0zM464 560c0-26.4-21.6-48-48-48s-48 21.6-48 48c0 26.4 21.6 48 48 48s48-21.4 48-48z" />
<glyph unicode="&#xe95d;" glyph-name="collection" d="M768 768h-512v128h512v-128zM832 704h-640v-128h640v128zM192 512h640c35.4 0 64-28.6 64-64v-384c0-35.4-28.6-64-64-64h-640c-35.4 0-64 28.6-64 64v384c0 35.4 28.6 64 64 64zM768 384h-512v-256h512v256z" />
<glyph unicode="&#xe95e;" glyph-name="comment" data-tags="comment" d="M896 896h-768c-35.4 0-64-28.6-64-64v-832l320 192h512c35.4 0 64 28.6 64 64v576c0 35.4-28.6 64-64 64zM832 320h-483.4l-156.6-94v542h640v-448z" />
<glyph unicode="&#xe95f;" glyph-name="comments" data-tags="comments" d="M768 768h-704c-35.4 0-64-28.6-64-64v-704l320 192h448c35.4 0 64 28.6 64 64v448c0 35.4-28.6 64-64 64zM704 320h-419.4l-156.6-94v414h576v-320zM928 896c17.6 0 32-14.4 32-32v-480h-64v448h-704v64h736z" />
<glyph unicode="&#xe960;" glyph-name="compass" data-tags="compass" d="M512 896c-247.4 0-448-200.6-448-448s200.6-448 448-448 448 200.6 448 448-200.6 448-448 448zM512 128c-176.4 0-320 143.6-320 320s143.6 320 320 320 320-143.6 320-320-143.6-320-320-320zM444.2 515.8l-113.2-249 249 113.2 113.2 249-249-113.2zM512 385c-34.8 0-63 28.2-63 63s28.2 63 63 63 63-28.2 63-63-28.2-63-63-63z" />
<glyph unicode="&#xe961;" glyph-name="compress" data-tags="compress" d="M448 384v-384h-128v165.4l-171.4-171.4-90.6 90.4 171.6 171.6h-165.6v128h384zM960 512v128h-164.6l171.6 172-91 90.8-172-171.2v164.4h-128v-384h384z" />
<glyph unicode="&#xe962;" glyph-name="contrast" data-tags="contrast" d="M512 896c-247.4 0-447.8-200.6-447.8-448s200.4-448 447.8-448 447.8 200.6 447.8 448-200.4 448-447.8 448zM512 128c-176.4 0-320 143.6-320 320s143.6 320 320 320 320-143.6 320-320-143.6-320-320-320zM768 448c0-141.2-114.8-256-256-256v512c141.2 0 256-114.8 256-256z" />
<glyph unicode="&#xe963;" glyph-name="copy" data-tags="copy" d="M704 64v-64h-607.8c-17.6 0-32.2 14.4-32.2 32v608h64v-576h576zM960 192c0-35.4-28.6-64-64-64h-640c-35.4 0-64 28.6-64 64v640c0 35.4 28.6 64 64 64h640c35.4 0 64-28.6 64-64v-640zM832 768h-512v-512h512v512z" />
<glyph unicode="&#xe964;" glyph-name="customize" d="M896 896h-256c-35.4 0-64-28.6-64-64v-256c0-35.4 28.6-64 64-64h256c35.4 0 64 28.6 64 64v256c0 35.4-28.6 64-64 64zM832 640h-128v128h128v-128zM384 896h-256c-35.4 0-64-28.6-64-64v-256c0-35.4 28.6-64 64-64h256c35.4 0 64 28.6 64 64v256c0 35.4-28.6 64-64 64zM320 640h-128v128h128v-128zM384 384h-256c-35.4 0-64-28.6-64-64v-256c0-35.4 28.6-64 64-64h256c35.4 0 64 28.6 64 64v256c0 35.4-28.6 64-64 64zM320 128h-128v128h128v-128zM960 128h-128v-128h-128v128h-128v128h128v128h128v-128h128v-128z" />
<glyph unicode="&#xe965;" glyph-name="queue-add" d="M896 896h-640c-35.4 0-64-28.6-64-64v-640c0-35.4 28.6-64 64-64h640c35.4 0 64 28.6 64 64v640c0 35.4-28.6 64-64 64zM832 256h-512v512h512v-512zM128 64h576v-64h-576c-35.4 0-64 28.6-64 64v576h64v-576zM768 448h-128v-128h-128v128h-128v128h128v128h128v-128h128v-128z" />
<glyph unicode="&#xe966;" glyph-name="queue-remove" d="M896 896h-640c-35.4 0-64-28.6-64-64v-640c0-35.4 28.6-64 64-64h640c35.4 0 64 28.6 64 64v640c0 35.4-28.6 64-64 64zM832 256h-512v512h512v-512zM128 64h576v-64h-576c-35.4 0-64 28.6-64 64v576h64v-576zM768 448h-384v128h384v-128z" />
<glyph unicode="&#xe967;" glyph-name="android" data-tags="android" d="M288 230c0-20.6 16.8-38 37.4-38h36.6v-136c0-31 25-56 56-56s56 25 56 56v136h76v-136c0-31 25-56 56-56s56 25 56 56v136h36.6c20.6 0 37.4 17.4 37.4 38v368h-448v-368zM194 597.4c-31 0-56-25-56-56v-261.4c0-31 25-56 56-56s56 25 56 56v261.4c0 31-25 56-56 56zM830 597.4c-31 0-56-25-56-56v-261.4c0-31 25-56 56-56s56 25 56 56v261.4c0 31-25 56-56 56zM643.8 815l48.6 48.8c7.4 7.4 7.4 19.2 0 26.6s-19 7.6-26.6 0l-55.2-55.2c-29.4 15-63 23.6-98.6 23.6-35.8 0-69.4-8.6-99.4-23.6l-55.6 55.2c-7.4 7.4-19 7.4-26.6 0-7.4-7.4-7.4-19 0-26.6l49-49.2c-55.2-40.6-91.4-100.6-91.4-174.6h448c0 74-36.2 134.4-92.2 175zM438 710h-38v36h38v-36zM624 710h-38v36h38v-36z" />
<glyph unicode="&#xe968;" glyph-name="apple" data-tags="apple" d="M770.2 421.4c-0.4 73.2 33.4 128.4 102 169.2-38.4 53.6-96.4 83.2-172.8 89-72.4 5.6-151.6-41.2-180.6-41.2-30.6 0-100.8 39.4-155.8 39.4-114-2-235-89-235-266 0-52.2 9.8-106.2 29.4-162 26-73.2 120.4-252.8 218.8-249.8 51.4 1.2 87.8 35.8 154.6 35.8 64.8 0 98.6-35.8 155.8-35.8 99.2 1.4 184.4 164.6 209.4 238-133 61.2-125.8 179.6-125.8 183.4v0zM653.2 752.4c54.4 64.2 48.4 122.6 46.8 143.6-48-2.8-102.6-32.4-134.4-69.2-35-39.2-54-88.2-49.6-142.8 52-4 98.2 23 137.2 68.4z" />
<glyph unicode="&#xe96b;" glyph-name="crayon" data-tags="crayon" d="M214.4 348.4l198-198 475.2 475.2-198 198c0 0-475.2-475.2-475.2-475.2zM729.2 704l-396-395.6-39.6 39.8 396 395.8 39.6-40zM887.6 863.2l39.6-39.6c43.6-43.8 43.6-114.6 0-158.4l-198 198c43.8 43.8 114.8 43.8 158.4 0zM357.2 126.6l-293.2-126.6 126.6 293.2c0 0 166.6-166.6 166.6-166.6z" />
<glyph unicode="&#xe96c;" glyph-name="credit-card" data-tags="credit.card" d="M960 832h-896c-35.4 0-64-28.6-64-64v-640c0-35.4 28.6-64 64-64h896c35.4 0 64 28.6 64 64v640c0 35.4-28.6 64-64 64zM896 704v-128h-768v128h768zM128 192v256h768v-256h-768z" />
<glyph unicode="&#xe96d;" glyph-name="crop" data-tags="crop" d="M703.6 320h128.4v384c0 35.2-28.8 64-64 64h-384v-128h320v-320h-0.4zM320 256v640h-130v-128h-126v-128h128v-448c0-35.2 28.8-64 64-64h448v-128h128v128h128v128h-640z" />
<glyph unicode="&#xe96e;" glyph-name="css" data-tags="css" d="M162 895.8l-31.6-167.8h677l-22.6-104h-676l-32.8-168h676.4l-37.8-189.4-272.8-90-236.4 90 17.2 81.4h-168.2l-39.2-200 392.6-148 449.4 149.6 59.6 300.6 12 59.8 79.6 386-846.4-0.2z" />
<glyph unicode="&#xe96f;" glyph-name="cup" data-tags="cup" d="M776 640h-528l-20 160h572l-24-160zM128 896l91.6-816.8c5.8-44.8 43.4-79.2 89.6-79.2h408.8c44.8 0 83.8 34.4 89.6 79.2l88.4 816.8c0 0-768 0-768 0z" />
<glyph unicode="&#xe970;" glyph-name="cut" data-tags="cut" d="M807.6 362v0c-61.8 0-117.8-31.4-151-83l-74 113.8c25.4 41 53.2 85.4 84.6 136.4 53.4 86 113.8 183.6 185.6 298.2l6 9.8-90.2 58.8-256.6-394.8-256.6 394.8-90.4-58.8 6-9.8c71.8-114.8 132.2-212.6 185.8-298.6 31.6-50.8 59-95.2 84.4-136l-74-113.8c-33.2 51.6-89.4 82.8-150.8 82.8-99.6 0-180.6-81-180.6-180.6s81-180.6 180.6-180.6c99.2 0 142.4 40 295.4 280.2 153.4-240.8 196.6-280.8 295.8-280.8 99.6 0 180.6 81.2 180.6 180.8s-81 181-180.6 181.2v0 0zM880 184c0-42-32.6-72-72.6-72h-2.4c-18.4 0-35.6 6.4-48.8 19.4-13.8 13.8-21.4 31-21.4 50.4 0 40.2 32.6 73.8 72.6 73.8s72.6-31.6 72.6-71.6v0zM267.6 129.2c-13.8-13.8-32-21.2-51.4-21.2-40.2 0-72.6 32.6-72.6 72.8s32.6 72.8 72.6 72.8c40.2 0 72.6-32.6 72.6-72.8 0.2-19.6-7.6-37.8-21.2-51.6 0 0 0 0 0 0z" />
<glyph unicode="&#xe971;" glyph-name="dashboard" data-tags="dashboard" d="M448 384h-320v512h320v-512zM448 256h-320v-256h320v256zM576 0h320v512h-320v-512zM576 640h320v256h-320v-256z" />
<glyph unicode="&#xe972;" glyph-name="database" data-tags="database" d="M512 896c-247.4 0-448-71.2-448-159v-577c0-88.4 200.6-160 448-160s448 71.6 448 160v577c0 87.8-200.6 159-448 159zM832 176c-81.4-29.6-194.6-48-320-48s-238.6 18.4-320 48v144h0.2c81.4-29.6 194.6-48 319.8-48s238.6 18.4 319.8 48h0.2v-144zM832 432c-81.4-29.6-194.6-48-320-48s-238.6 18.4-320 48v144h0.2c81.4-29.6 194.6-48 319.8-48s238.6 18.4 319.8 48h0.2v-144zM512 640c-176.8 0-320 28.6-320 64s143.2 64 320 64 320-28.6 320-64-143.2-64-320-64z" />
<glyph unicode="&#xe973;" glyph-name="database-alt" data-tags="database.alt" d="M512 192c192.8 0 360.6 33.4 448 82.6v-114.6c0-88.4-200.6-160-448-160s-448 71.6-448 160v114.6c87.4-49.2 255.2-82.6 448-82.6zM960 402.6v128c-87.4-49.2-255.2-82.6-448-82.6s-360.6 33.4-448 82.6v-128c87.4-49.2 255.2-82.6 448-82.6s360.6 33.4 448 82.6zM960 769.6c0 69.8-200.6 126.4-448 126.4s-448-56.6-448-126.4v-63.6h0.2c-0.2 0-0.2-2.4-0.2-3.8 0-69.8 200.6-126.2 448-126.2s448 56.4 448 126.2c0 1.4 0 3.8-0.2 3.8h0.2v63.6z" />
<glyph unicode="&#xe974;" glyph-name="date" data-tags="date" d="M832 768v128h-128v-128h-384v128h-128v-128h-64c-35.4 0-64-28.6-64-64v-640c0-35.4 28.6-64 64-64h768c35.4 0 64 28.6 64 64v640c0 35.4-28.6 64-64 64h-64zM832 128h-640v512h640v-512zM768 192h-192v192h192v-192z" />
<glyph unicode="&#xe975;" glyph-name="delete" data-tags="delete" d="M602.6 448l226.2-226.2-90.6-90.6-226.2 226.2-226.2-226.2-90.6 90.6 226.2 226.2-226.2 226.2 90.6 90.6 226.2-226.2 226.2 226.2 90.6-90.6-226.2-226.2z" />
<glyph unicode="&#xe976;" glyph-name="desktop" data-tags="desktop" d="M960 896h-896c-35.4 0-64-28.6-64-64v-576c0-35.4 28.6-64 64-64h384v-128h-256v-64h640v64h-256v128h384c35.4 0 64 28.6 64 64v576c0 35.4-28.6 64-64 64zM896 320h-768v448h768v-448z" />
<glyph unicode="&#xe977;" glyph-name="dice" data-tags="dice" d="M896 896h-768c-35.4 0-64-28.6-64-64v-768c0-35.4 28.6-64 64-64h768c35.4 0 64 28.6 64 64v768c0 35.4-28.6 64-64 64zM288 576c-53 0-96 43-96 96s43 96 96 96 96-43 96-96-43-96-96-96zM512 352c-53 0-96 43-96 96s43 96 96 96 96-43 96-96-43-96-96-96zM736 128c-53 0-96 43-96 96s43 96 96 96 96-43 96-96-43-96-96-96z" />
<glyph unicode="&#xe978;" glyph-name="directions" data-tags="directions" d="M128 832l298.6-768 85.4 384 384 85.4c0 0-768 298.6-768 298.6z" />
<glyph unicode="&#xe979;" glyph-name="download" data-tags="download" d="M738.2 483.8l-226.2-226.2-226.2 226.2 90.6 90.6 71.8-71.8v393.4h128v-393.4l71.8 71.8 90.2-90.6zM704 852.8v-149c77.6-58.4 128-151.4 128-255.8 0-176.4-143.6-320-320-320s-320 143.6-320 320c0 104.4 50.4 197.4 128 255.8v149c-151.4-71.8-256-226-256-404.8 0-247.4 200.6-448 448-448s448 200.6 448 448c0 178.8-104.6 333-256 404.8z" />
<glyph unicode="&#xe97a;" glyph-name="download-alt" data-tags="download.alt" d="M780 459.4l-268-267.4-268 267.4 90.6 90.6 113.4-113.4v459.4h128v-459.4l113.4 113.4 90.6-90.6zM832 128h-640v-128h640v128z" />
<glyph unicode="&#xe97c;" glyph-name="drop" data-tags="drop" d="M683.8 675c-70 112-140.4 202.6-143.2 207.8-7 9.2-17 13.2-29 13.2s-22-4-29-13.2c-3-4-72.4-93.6-143.8-205.6-97.4-155.8-147-272-147-346.2-1-183.4 143.8-331 319.6-331s320.8 147.6 320.8 329.8c0 74.4-50.4 191.6-148.4 345.2v0zM319.8 331c0 17.4 9.2 88.8 127 277.8 19.8 31 41.4 63.2 63.8 95.4 19.8-28.6 41.6-61.6 63.4-96.6l1.2-2c122.2-189.4 128.4-263 128.4-275.8 0-3.4 0-5.8-0.2-9.8h-383.4c-0.2 4-0.2 6.8-0.2 10.2v0.8z" />
<glyph unicode="&#xe97d;" glyph-name="dropbox" data-tags="dropbox" d="M512 349.4l185.4-153.6 78.6 51.6v-57.6l-264.4-157.8-263.6 157.8v57.6l79.6-51.6 184.4 153.6zM327.6 864l184.4-153.2 184.4 153.2 263.6-170.6-182.2-146.8 182.2-146-263.6-172-184.4 154-184.4-154-263.6 172 182.2 146-182.2 146.8c0 0 263.6 170.6 263.6 170.6zM512 387l261.6 159.6-261.6 160-261.6-160c0 0 261.6-159.6 261.6-159.6z" />
<glyph unicode="&#xe97e;" glyph-name="dropper" data-tags="dropper" d="M259 99.6l-95.6 95.6 401.2 402.2 96.6-96.6c0 0-402.2-401.2-402.2-401.2zM945.6 766l-116.4 116c-18.4 19.4-50.8 19.2-70.2-0.2l-155.2-155.4-96 95-70.2-70.2 70.4-70.6-444-444v-236.6h236.4l444 444 70.6-70.6 70.2 70.2-95.6 95.6 155.2 155.6c20.2 19.8 20.2 51.2 0.8 71.2v0 0z" />
<glyph unicode="&#xe97f;" glyph-name="earth" data-tags="earth" d="M512 896c-247.2 0-448-200.8-448-448s200.8-448 448-448 448 200.8 448 448-200.8 448-448 448zM192 448c0 16.6 1.2 32.8 3.8 48.8l188.2-183.2v-44.8c0-49.2 34-88.8 84-88.8v-49c-156 21.6-276 155.4-276 317zM691.2 256h-51.2v147.2c0 24.6-19.8 44.8-44.4 44.8h-275.6v90h82c24.6 0 46 19.8 46 44.4v89.6h108.8c41.6 0 76.8 29 86.6 67.8 111-50.2 188.6-162.2 188.6-291.8 0-80-29.6-153.2-78.2-209.4-16.2 12.2-38.2 17.4-62.6 17.4z" />
<glyph unicode="&#xe980;" glyph-name="ellipsis-horizontal" data-tags="ellipsis.horizontal" d="M320 320h-256v256h256v-256zM960 576h-256v-256h256v256zM640 576h-256v-256h256v256z" />
<glyph unicode="&#xe981;" glyph-name="ellipsis-horizontal-alt" data-tags="ellipsis.horizontal.alt" d="M192 320v0c-70.6 0-128 57.4-128 128v0c0 70.6 57.4 128 128 128v0c70.6 0 128-57.4 128-128v0c0-70.6-57.4-128-128-128zM832 576v0c-70.6 0-128-57.4-128-128v0c0-70.6 57.4-128 128-128v0c70.6 0 128 57.4 128 128v0c0 70.6-57.4 128-128 128zM512 576v0c-70.6 0-128-57.4-128-128v0c0-70.6 57.4-128 128-128v0c70.6 0 128 57.4 128 128v0c0 70.6-57.4 128-128 128z" />
<glyph unicode="&#xe982;" glyph-name="ellipsis-vertical" data-tags="ellipsis.vertical" d="M384 640v256h256v-256h-256zM640 0v256h-256v-256h256zM640 320v256h-256v-256h256z" />
<glyph unicode="&#xe983;" glyph-name="ellipsis-vertical-alt" data-tags="ellipsis.vertical.alt" d="M384 768v0c0 70.6 57.4 128 128 128v0c70.6 0 128-57.4 128-128v0c0-70.6-57.4-128-128-128v0c-70.6 0-128 57.4-128 128zM640 128v0c0 70.6-57.4 128-128 128v0c-70.6 0-128-57.4-128-128v0c0-70.6 57.4-128 128-128v0c70.6 0 128 57.4 128 128zM640 448v0c0 70.6-57.4 128-128 128v0c-70.6 0-128-57.4-128-128v0c0-70.6 57.4-128 128-128v0c70.6 0 128 57.4 128 128z" />
<glyph unicode="&#xe985;" glyph-name="email" data-tags="email" d="M1024 704c0 70.6-57.4 128-128 128h-768c-70.6 0-128-57.4-128-128v-512c0-70.6 57.4-128 128-128h768c70.4 0 128 57.6 128 128v512zM896 576l-384-256-384 256v128l384-260 384 260v-128z" />
<glyph unicode="&#xe986;" glyph-name="eraser" data-tags="eraser" d="M960 64v-64h-896v64h896zM78.2 315.6c-9 8.2-14 19.8-14.2 32s4.6 23.8 13 32.4l502.8 503.2c16.8 16.8 46.6 16.8 63.4 0l303.8-304c17.4-17.4 17.4-46 0-63.4l-368.2-374.4c-8.6-8.4-20-13.4-31.8-13.4h-259c-11.2 0-22.4 4.6-30.6 12.4l-179.2 175.2zM173.2 349.2l132.6-131.2h222.4l103.8 110-240.2 240.2c0 0-218.6-219-218.6-219z" />
<glyph unicode="&#xe987;" glyph-name="expand" data-tags="expand" d="M128 64v384h128v-164.4l172 171.2 91-90.8-171.6-172h164.6v-128h-384zM512 832v-128h165.6l-171.6-171.6 90.6-90.6 171.4 171.4v-165.2h128v384h-384z" />
<glyph unicode="&#xe988;" glyph-name="eye" data-tags="eye" d="M1012.2 490.4c-100.2 166.4-287.2 277.6-500.2 277.6s-400-111.2-500.2-277.6c-15.8-26.2-15.8-58.6 0-84.6 100.2-166.6 287.2-277.8 500.2-277.8s400 111.2 500.2 277.6c15.8 26.2 15.8 58.6 0 84.8v0 0zM512 211.6c-182.4 0-341.4 95-426.6 236.4 78.6 130.2 219.8 221.2 384.2 234.8 17.4-17.6 28.2-41.4 28.2-67.8 0-53.8-44.6-97.4-99.6-97.4s-99.6 43.6-99.6 97.4v0c-18.2-33.2-28.4-71-28.4-111.2 0-130.6 108.2-236.4 241.8-236.4s241.8 105.8 241.8 236.4c0 54-18.4 103.6-49.6 143.4 98.8-40.2 181.2-110.8 234.4-199.2-85.2-141.2-244.2-236.2-426.6-236.4v0 0z" />
<glyph unicode="&#xe989;" glyph-name="eye-blocked" data-tags="eye.blocked" d="M484.8 263.8c-143 16-242.2 155-207.8 298.4l207.8-298.4zM512 205.2c-182.4 0-341.2 97.6-426.4 242.8 38.6 65.8 92.6 122 157 163.8l-49.2 70.2c-74.4-48.6-136.6-114-181.6-190.4-15.8-27-15.8-60.2 0-87 100.2-171 287.2-285 500.2-285 23.6 0 47 1.4 70.4 4.2l-57 81.8c-4.6-0.2-8.8-0.2-13.4-0.4v0zM1012 404.4c-59-100.6-148.4-181.6-255.2-231.2l85.6-122.8-72-50.4-588.8 845.4 72 50.4 98.8-141.6c50.8 14.4 104.6 22.2 160 22.2 213 0 399.8-114.4 500-285 15.6-26.8 15.6-60-0.4-87v0 0 0zM938.4 448c-78.6 133.8-219.8 227.2-384 241-17.4-18-28.2-42.6-28.2-69.8 0-55.2 45-100 99.8-100 55 0 99.8 44.8 99.8 100v0c54-102.2 29.4-232.6-66-306.6l47.2-68.2c97.6 41.8 178.6 113.6 231.4 203.6v0 0z" />
<glyph unicode="&#xe98a;" glyph-name="eye-glasses" data-tags="eye.glasses" d="M994 613c-22 25.4-56.4 39-91.6 39h-259.2c-36.6 0-69.8-14.6-90.2-41-5.2-6.6-9.6-13-13-21-18.4 3.8-37.4 4-56.2 0-3.4 7.8-7.8 14.2-12.6 20.8-20.8 26.6-54.2 41.2-90.4 41.2h-259.2c-35.2 0-69.6-14-92.4-39.2-22.4-25.2-32.8-78-28-115l21.8-129.8c8.6-69.6 69.6-124.2 140.4-124.2h131.2c67.8 0 133.6 51.2 149 114.4l40 120.8c16.6 12.2 39.6 12 56.2-0.2l39.2-117.6c16.6-65.8 82.8-117.4 150.6-117.4h131.2c70 0 131.8 54.6 140 122.4l21.8 133.4c4.4 35.4-4.6 88.2-28.6 113.4v0zM345.2 386.2l-1-3.6c-4-16.4-26.8-34.6-48.4-36.6h-132.4c-18.2 0-36.4 16.2-38.6 34.6l-0.4 2.2-21.8 129.8c-1 10 1.8 25.8 5 33.6 2.8 1.8 7.8 3.8 14 3.8h259.2c5.2 0 8.2-1.2 9.6-1.8l4.8-10.8-50-151.2zM921.6 514l-22-133.4-0.4-2.2c-2-16.8-20.6-32.6-38.4-32.6h-131.2c-20.8 0-46.2 19.8-51.4 40.2l-1 3.6-49 147.2 4.6 10.6c0.2 0.2 0.8 0.8 0.8 0.8 1 0.6 4.2 1.6 9.2 1.6h259.2c6 0 10.8-1.4 14-3.4 3.6-7.8 6.4-24.4 5.6-32.4v0z" />
<glyph unicode="&#xe98b;" glyph-name="facebook" data-tags="facebook" d="M736 896v-192h-83.6c-31 0-44.4-35.4-44.4-66.4v-125.6h128v-192h-128v-320h-192v320h-128v192h128v204.8c0 99 86.6 179.2 185.6 179.2 0 0 134.4 0 134.4 0z" />
<glyph unicode="&#xe98c;" glyph-name="facebook-alt" data-tags="facebook.alt" d="M960 800v-704c0-53-43-96-96-96h-160v320h128v128h-128v160c0 17.6 14.4 32 32 32h96v128h-128c-70.6 0-128-57.4-128-128v-192h-128v-128h128v-320h-416c-53 0-96 43-96 96v704c0 53 43 96 96 96h704c53 0 96-43 96-96z" />
<glyph unicode="&#xe98d;" glyph-name="faq" data-tags="faq" d="M704 320h-384l-320-192v640c0 70.6 57.4 128 128 128h576c70.6 0 128-57.4 128-128v-320c0-70.6-57.4-128-128-128zM960 704v-512h-448v-64h320l192-128v704h-64z" />
<glyph unicode="&#xe98e;" glyph-name="feather" data-tags="feather" d="M64 0c0 0 92.8 87.4 128 125.4 1 1 2 2.2 3 3.4 107.8-42.4 324.4 56 518.6 240.4 5.8 5.2 4.8 3 10.2 8.4l-208 49.4 269.6 18.4 3 2.6c205.2 204 169.2 448 169.2 448s-257.6-3.2-469.2-135l-15.6-215.2-50.2 167c-13.4-10.6-17.8-13.8-30.6-25.8-45.2-42.6-77.2-78.4-111.8-122.2l23.8-166.8-74.4 100.4c-94.4-140.6-128.2-271.6-78.4-337.6-5.6-8-11.2-16.4-16.8-25.4-46.8-75.2-70.4-135.4-70.4-135.4v0zM187.6 167.2c0 0 259.6 432.6 702.2 622.4 0 0-399-228-702.2-622.4z" />
<glyph unicode="&#xe98f;" glyph-name="female" data-tags="female" d="M786.6 175l-174.2 282c-22.6 37-61.2 55-100 55s-77.4-18-99.8-55l-175.2-282c-47.8-76 9.2-175 99.8-175h349.4c91.8 0 147.8 98 100 175zM358.6 128l153.6 247.2 153-247.2h-306.6zM409.6 618c27.8-28 64.6-41.6 101.6-41.6 36 0 71.8 12.6 98.6 38l32.8 30.4c48.2 45.2 57.4 115.8 21.6 170.8-34.8 54-93.4 80.4-151.8 80.4-59.6 0-119-27.4-154-83.4-33.8-53-24.6-121.4 20.6-165.6l30.6-29zM466 743.8l0.8 1.2c12.6 20.2 33.8 23.2 45.2 23.2 9 0 31.6-2.2 44.4-22l0.4-0.6c0.8-1.4 2.2-3.4-1.8-7.2l-33.2-30.8-0.8-0.8c-1.2-1.2-4.8-2.8-10-2.8-2.2 0-7.8 0.4-11.4 4l-0.8 0.8-30.8 29.4c-1.6 2.2-2.4 4.6-2 5.6v0z" />
<glyph unicode="&#xe990;" glyph-name="female-gender" data-tags="female.gender" d="M576 392c110.4 28.4 192 128.6 192 248 0 141.4-114.6 256-256 256s-256-114.6-256-256c0-119.2 81.6-219.6 192-248v-136h-128v-128h128v-128h128v128h128v128h-128v136zM384 640c0 70.6 57.4 128 128 128s128-57.4 128-128-57.4-128-128-128-128 57.4-128 128z" />
<glyph unicode="&#xe991;" glyph-name="file" data-tags="file" d="M544 896h-352c-35.4 0-64-28.6-64-64v-768c0-35.4 28.6-64 64-64h640c35.4 0 64 28.6 64 64v480l-352 352zM768 128h-512v640h236l276-276v-364zM896 640l-256 256h256v-256z" />
<glyph unicode="&#xe992;" glyph-name="file-add" data-tags="file.add" d="M960 128h-128v-128h-128v128h-128v128h128v128h128v-128h128v-128zM832 896h-256l256-256v256zM192 128v640h236l276-276v-44h128v96l-352 352h-352c-35.4 0-64-28.6-64-64v-768c0-35.4 28.6-64 64-64h384v128h-320z" />
<glyph unicode="&#xe993;" glyph-name="file-remove" data-tags="file.remove" d="M960 192h-384v128h384v-128zM832 896h-256l256-256v256zM192 128v640h236l276-276v-44h128v96l-352 352h-352c-35.4 0-64-28.6-64-64v-768c0-35.4 28.6-64 64-64h384v128h-320z" />
<glyph unicode="&#xe994;" glyph-name="files" data-tags="files" d="M544 896h-224c-35.4 0-64-28.6-64-64v-640c0-35.4 28.6-64 64-64h512c35.4 0 64 28.6 64 64v352l-352 352zM768 256h-384v512h108l276-276v-236zM896 640l-256 256h256v-256zM704 64v-64h-544c-17.6 0-32 14.4-32 32v672h64v-640h512z" />
<glyph unicode="&#xe995;" glyph-name="files-add" data-tags="files.add" d="M192 224v608c0 35.4 28.6 64 64 64h224l352-352v-96h-128v44l-276 276h-108v-512h192v-128h-256c-35.4 0-64 28.6-64 64v32zM832 896h-256l256-256v256zM128 704h-64v-672c0-17.6 14.4-32 32-32h544v64h-512v640zM960 256h-128v128h-128v-128h-128v-128h128v-128h128v128h128v128z" />
<glyph unicode="&#xe996;" glyph-name="files-remove" data-tags="files.remove" d="M192 224v608c0 35.4 28.6 64 64 64h224l352-352v-96h-128v44l-276 276h-108v-512h192v-128h-256c-35.4 0-64 28.6-64 64v32zM832 896h-256l256-256v256zM128 704h-64v-672c0-17.6 14.4-32 32-32h544v64h-512v640zM960 320h-384v-128h384v128z" />
<glyph unicode="&#xe997;" glyph-name="filter" data-tags="filter" d="M960 640h-896v128h896v-128zM832 512h-640v-128h640v128zM704 256h-384v-128h384v128z" />
<glyph unicode="&#xe998;" glyph-name="find" data-tags="find" d="M960 98.2c-2 26.6-15.6 51-37 66.8l-155.6 115.2c-11.2 8.4-28 7.2-38-2.8l-10.2-10.2-41.4 41.4c56 62.4 90.2 144.8 90.2 235.4 0 194.4-157.6 352-352 352s-352-157.6-352-352 157.6-352 352-352c90.4 0 173 34.2 235.4 90.2v0l41.4-41.4-10.2-10.2c-10-10-11.4-26.6-2.8-38l115.2-155.6c17.6-23.6 44.2-37 73.8-37 24.2 0 47.4 9.6 64.6 26.6 18.6 19 28.6 45 26.6 71.6v0zM416 320c-123.6 0-224 100.4-224 224s100.4 224 224 224 224-100.4 224-224-100.4-224-224-224z" />
<glyph unicode="&#xe999;" glyph-name="email-alt" data-tags="email.alt" d="M896 832h-768c-70.6 0-128-57.4-128-128v-512c0-70.6 57.4-128 128-128h768c70.4 0 128 57.6 128 128v512c0 70.6-57.4 128-128 128zM896 192.2c0 0-0.2-0.2-0.2-0.2h-767.8v384l384-256 384 256v-383.8zM512 444l-384 260h768l-384-260z" />
<glyph unicode="&#xe99b;" glyph-name="fire" data-tags="fire" d="M789.2 530c-28.4-79-81-128.8-165.8-128.8 56.6 224.6-8 374.2-198.2 494.6 64.8-220.2-206.4-357.4-230.6-565-44.6-374.4 517.8-466 622.6-91.8 24.4 79 20.4 178.8-28 291v0z" />
<glyph unicode="&#xe99c;" glyph-name="flag" data-tags="flag" d="M512 768v64c0 35.4-28.6 64-64 64h-320c-35.4 0-64-28.6-64-64v-832h128v384h256v-128h512v448c0 35.4-28.6 64-64 64h-384zM448 512h-256v256h256v-256zM832 384h-256v256h256v-256z" />
<glyph unicode="&#xe99d;" glyph-name="floppy" data-tags="floppy" d="M576.6 704h110c9.6 0 17.2 8.8 17.2 18.8v173.2h-109.8c-9.6 0-18.2-8-18.2-18v-173.4c0.2-0.4 0.4-0.6 0.8-0.6zM954.8 766.8l-123.8 123.8c-3.4 3.4-8 5.4-12.6 5.4h-50.4v-208.2c0-26.4-21.4-47.8-47.8-47.8h-416.2c-26.6 0-48 21.4-48 48v208h-128c-35.4 0-64-28.6-64-64v-768c0-35.4 28.6-64 64-64h768c35.4 0 64 28.6 64 64v690.2c0 4.8-2 9.4-5.2 12.6v0zM770 178c0-26.6-21.4-48-48-48h-418c-26.6 0-48 21.4-48 48v222c0 26.6 21.4 48 48 48h418c26.6 0 48-21.4 48-48v-222z" />
<glyph unicode="&#xe99e;" glyph-name="flow-tree" data-tags="flow.tree" d="M384 896v-256h64v-128h-256c-35.4 0-64-28.6-64-64v-192h-64v-256h256v256h-64v128h192v-128h-64v-256h256v256h-64v128h192v-128h-64v-256h256v256h-64v192c0 35.4-28.6 64-64 64h-256v128h64v256h-256z" />
<glyph unicode="&#xe99f;" glyph-name="folder" data-tags="folder" d="M832 192h-640v384h640v-384zM896 704h-320l-192 128h-256c-35.4 0-64-28.6-64-64v-640c0-35.4 28.6-64 64-64h768c35.4 0 64 28.6 64 64v512c0 35.4-28.6 64-64 64z" />
<glyph unicode="&#xe9a0;" glyph-name="folder-add" data-tags="folder.add" d="M1024 192h-128v-128h-128v128h-128v128h128v128h128v-128h128v-128zM128 192v384h640v-64h128v128c0 35.4-28.6 64-64 64h-320l-192 128h-256c-35.4 0-64-28.6-64-64v-640c0-35.4 28.6-64 64-64h512v128h-448z" />
<glyph unicode="&#xe9a1;" glyph-name="folder-open" data-tags="folder.open" d="M192 512h-128v256c0 35.4 28.6 64 64 64h256l192-128h320c35.4 0 64-28.6 64-64v-128h-128v64h-640v-64zM832 192h-640v256h-128v-320c0-35.4 28.6-64 64-64h768c35.4 0 64 28.6 64 64v320h-128v-256z" />
<glyph unicode="&#xe9a2;" glyph-name="folder-remove" data-tags="folder.remove" d="M640 256v128h384v-128h-384zM128 192v384h640v-64h128v128c0 35.4-28.6 64-64 64h-320l-192 128h-256c-35.4 0-64-28.6-64-64v-640c0-35.4 28.6-64 64-64h512v128h-448z" />
<glyph unicode="&#xe9a3;" glyph-name="food-dome" data-tags="food.dome" d="M895.6 320h-767.2c8.2 172.8 146.8 311.6 319.6 319.6v128.4h128v-128.4c172.8-8 311.6-146.8 319.6-319.6zM960 256h-896v-128h896v128z" />
<glyph unicode="&#xe9a4;" glyph-name="football" data-tags="football" d="M512 896c-247.4 0-448-200.6-448-448s200.6-448 448-448 448 200.6 448 448-200.6 448-448 448zM877.6 548h-68l-62.4 108 34 59c45.4-45.6 78.8-103 96.4-167v0zM737.2 456h-105.2l-52.6 91.4 26.4 45.2 26.2 45.4h105.2l52.6-91-52.6-91zM617.2 647.2l-26.4-45.6-26.2-45.6h-105l-26.4 45.6-26.4 45.4 52.6 91h105l52.8-90.8zM286.8 638h105.2l26.4-45.2 26.4-45.6-52.8-91.2h-105.2l-52.6 91 52.6 91zM286 440h106l52.6-91.4-26.4-45.2-26.2-45.4h-105.2l-53 91 52.2 91zM406.8 248l52.8 92h105l26.4-45.6 26.4-45.4-52.8-91h-105l-52.8 90zM737.2 258h-105.2l-26.4 45.2-26.4 45.6 52.8 91.2h105.2l52.6-91-52.6-91zM608.6 814.6l-34-58.6h-125l-34 58.6c31 8.2 63.2 13 96.6 13 33.2 0 65.4-4.8 96.4-13zM242.8 715l34-59-62.4-108h-68c17.6 64 51 121.2 96.4 167v0zM146.4 348h68l62.4-108-34-59c-45.2 45.6-78.8 103-96.4 167v0zM415.4 81.4l34 58.6h125l34-58.6c-30.8-8.2-63-13-96.6-13-33.2 0.2-65.4 4.8-96.4 13zM781.2 181l-34 58.8 62.4 108.2h68c-17.6-64-51-121.2-96.4-167v0z" />
<glyph unicode="&#xe9a5;" glyph-name="forward" data-tags="forward" d="M192 128v640h-128v-640h128zM384 128h-128v640h128v-640zM512 128v640l448-320-448-320z" />
<glyph unicode="&#xe9a6;" glyph-name="gamepad" data-tags="gamepad" d="M725.2 755.2c-85.2 0-102.4-43.8-213.2-43.8s-128 43.8-213.2 43.8c-85.6 0-298.8-149.2-298.8-390.6 0 0 0 0 0-4.6 0-122.8 93.8-219.4 213.2-219.4 89.6 0 196.4 87.8 298.8 87.8s213.2-87.8 298.8-87.8c119.6 0 213.2 96.4 213.2 219.4 0 0 0 0 0 4.6 0 241.6-213.2 390.6-298.8 390.6zM460 396h-102v-102h-102v102h-102v104h102v102h102v-102h102v-104zM716.8 601.6c28.4 0 51.2-22.8 51.2-51.2s-22.8-51.2-51.2-51.2c-28.4 0-51.2 22.8-51.2 51.2s22.8 51.2 51.2 51.2zM614.4 396.8c-28.4 0-51.2 22.8-51.2 51.2s22.8 51.2 51.2 51.2c28.4 0 51.2-22.8 51.2-51.2s-22.8-51.2-51.2-51.2zM716.8 294.4c-28.4 0-51.2 22.8-51.2 51.2s22.8 51.2 51.2 51.2c28.4 0 51.2-22.8 51.2-51.2s-22.8-51.2-51.2-51.2zM819.2 396.8c-28.4 0-51.2 22.8-51.2 51.2s22.8 51.2 51.2 51.2 51.2-22.8 51.2-51.2c0-28.4-22.8-51.2-51.2-51.2z" />
<glyph unicode="&#xe9a7;" glyph-name="ghost" data-tags="ghost" d="M512 896v0c-212.2 0-384-179.4-384-400.8v-495.2l128 128 128-128 128 128 128-128 128 128 128-128v495.2c0 221.4-171.8 400.8-384 400.8v0zM384 448c-53 0-96 43-96 96s43 96 96 96 96-43 96-96-43-96-96-96zM640 448c-53 0-96 43-96 96s43 96 96 96 96-43 96-96-43-96-96-96z" />
<glyph unicode="&#xe9a8;" glyph-name="gift" data-tags="gift" d="M911.8 672h-167.4c22.6 23.4 34.8 62.6 34.8 94.6 0 36.2-15.2 68.4-43.8 93.2-26.8 22.8-61.4 36.2-99.4 36.2s-71.6-13.4-98.4-36.2c-10.2-8.6-19.4-19.2-27.8-30.8-7.8 11-16.4 20.8-25.6 29-26.6 22.8-64.2 38-100.4 38-38 0-70.8-15.2-97.4-38-28.6-24.8-43.8-57-43.8-93.2 0-31.2 11.4-69.6 33-92.8h-163.6c-26.4 0-48-21.6-48-48v-176c0-35.4 28.6-64 64-64v0-320c0-35.4 28.6-64 64-64h640c35.4 0 64 28.6 64 64v320c35.4 0 64 28.6 64 64v176c0 26.4-21.6 48-48.2 48v0zM587 802.8c13.4 11.4 30.4 17.2 49.4 17.2s36.2-5.8 49.4-19c11.4-9.6 17.2-22.8 17.2-36.2s-5.8-26.6-17.2-36.2c-19-17.2-62.8-36.2-100.8-36.2-13.4 0-24.8 3.8-30.4 7.6-3.8 3.8-5.8 11.4-5.8 21 0 26.6 17.2 62.8 38.2 81.8v0zM335.8 802.8c13.4 11.4 30.4 17.2 49.4 17.2s36.2-5.8 49.4-15.2c21-17.2 38-55.2 38-81.8 0-11.4-2-17.2-5.8-21-5.8-5.8-17.2-7.6-30.4-7.6-38 0-81.8 19-100.8 36.2-11.4 9.6-17.2 22.8-17.2 36.2 0.4 13.2 6 26.4 17.4 36v0zM191.8 576h640v-64h-640v64zM255.8 384h192v-256h-192v256zM575.8 128v256h192v-256h-192z" />
<glyph unicode="&#xe9a9;" glyph-name="github" data-tags="github" d="M512 883.8c-247.2 0-448-199.2-448-446.2 0-197.8 128.6-365.4 306.4-425 22.4-3.6 29.6 10.4 29.6 22.4 0 10.4 0 38.6 0 75.6-124-26.8-150.6 60-150.6 60-20.6 52-49.8 65.8-49.8 65.8-40.8 27.8 3.2 26.8 3.2 26.8 44.8-3.2 68.6-46.2 68.6-46.2 39-68 104.8-48 130.4-37.2 4 29.2 15.6 48.8 28.2 60-99.4 11.2-203.8 49.8-203.8 220 0 49.8 17 89.4 46.2 121.2-4.4 11.2-20.2 57.8 4.4 118 0 0 37.6 12 123.2-45.6 35.4 9.8 74 14.8 112 14.8s76.6-5 112-14.8c85.6 57.8 123.2 45.6 123.2 45.6 24.6-60.4 9-106.8 4.4-118 29.2-31.8 46.2-71.4 46.2-121.2 0-171-104.8-208.6-204.8-219.6 16.2-13.8 31-41.2 31-82.6 0-60 0-108.2 0-122.6 0-12 7.2-26.4 30-22.4 177.8 60 306 227.2 306 425 0 247.2-200.8 446.4-448 446.2v0 0z" />
<glyph unicode="&#xe9aa;" glyph-name="globe" data-tags="globe" d="M453.8 319.8c143.2-1.2 259.4 115 258.2 258.4-1.2 136.8-117 252.6-254 253.8-143 1.2-259.4-115-258-258.4 1.2-136.8 117-252.6 253.8-253.8zM868 587.8c0 108.8-48.4 212.2-124 291-11 11.4-25.6 17.2-40.4 17.2-14.4 0-28-5.2-38.8-15.6-22.2-21.4-23-56.8-1.6-79.2 58.2-60.6 96-140.8 92.8-225-6-160.4-120-290.2-280.4-296.2-84-3.2-164.2 27.6-224.8 85.8-22.4 21.4-57.8 20.8-79.2-1.6-10.4-10.6-15.6-24.2-15.6-38.2 0-15.2 5.6-29.6 17.2-40.8 65-62.6 122.8-101.4 210.8-113.2v-44h-192v-128h512v128h-192v44c206 27.6 356 203.4 356 415.8v0z" />
<glyph unicode="&#xe9ab;" glyph-name="google" data-tags="google" d="M512 512v-128h310.2c-14.8-170-155.8-256-290.2-256-171.6 0-320 129.6-320 320 0 183.6 140.8 320 320 320 138.4 0 220-84 220-84l84 92c0 0-108.2 120-308 120-254.4 0-452-215-452-448 0-226.2 183.2-448 456-448 239.6 0 416 188.2 416 431 0.2 51.6-8 81-8 81h-428z" />
<glyph unicode="&#xe9ac;" glyph-name="google-drive" data-tags="google.drive" d="M334.8 778l-270.8-474.4 141.6-247.6 270.4 474.6-141.2 247.4zM418.4 302l-141.8-246h541.6l141.8 246h-541.6zM936.4 346l-283.2 494h-282.8l283.4-494h282.6z" />
<glyph unicode="&#xe9ad;" glyph-name="google-plus" data-tags="google.plus" horiz-adv-x="1344" d="M436 512v-128h311.2c-14.8-170-155.8-256-290.2-256-171.6 0-320 129.6-320 320 0 183.6 140.8 320 320 320 138.4 0 220-84 220-84l84 92c0 0-108.2 120-308 120-254.4 0-452-215-452-448 0-226.2 183.2-448 456-448 239.6 0 416 188.2 416 431 0.2 51.6-8 81-8 81h-429zM1344 384h-128v-128h-128v128h-128v128h128v128h128v-128h128v-128z" />
<glyph unicode="&#xe9ae;" glyph-name="gps" data-tags="gps" d="M640 448c0-70.6-57.4-128-128-128s-128 57.4-128 128 57.4 128 128 128 128-57.4 128-128zM960 384h-69.4c-27-160.8-153.8-287.6-314.6-314.6v-69.4h-128v69.4c-160.8 27-287.6 153.8-314.6 314.6h-69.4v128h69.4c27 160.8 153.8 287.6 314.6 314.6v69.4h128v-69.4c160.8-27 287.6-153.8 314.6-314.6h69.4v-128zM768 448c0 141.2-114.8 256-256 256s-256-114.8-256-256 114.8-256 256-256 256 114.8 256 256z" />
<glyph unicode="&#xe9af;" glyph-name="grid" data-tags="grid" d="M448 512h-384v384h384v-384zM960 896h-384v-384h384v384zM448 384h-384v-384h384v384zM960 384h-384v-384h384v384z" />
<glyph unicode="&#xe9b0;" glyph-name="grid-align-bottom-left" data-tags="grid.align.bottom.left" d="M384 256h256v-256h-256v256zM64 640h256v256h-256v-256zM384 320h256v256h-256v-256zM64 320h256v256h-256v-256zM64 256h256v-256h-256v256zM128 64h128v128h-128v-128zM704 896v-256h256v256h-256zM704 320h256v256h-256v-256zM384 640h256v256h-256v-256zM704 0h256v256h-256v-256z" />
<glyph unicode="&#xe9b1;" glyph-name="grid-align-bottom-right" data-tags="grid.align.bottom.right" d="M704 320v256h256v-256h-256zM320 0v256h-256v-256h256zM640 320v256h-256v-256h256zM640 0v256h-256v-256h256zM704 0v256h256v-256h-256zM896 64v128h-128v-128h128zM64 640h256v256h-256v-256zM640 640v256h-256v-256h256zM320 320v256h-256v-256h256zM960 640v256h-256v-256h256z" />
<glyph unicode="&#xe9b2;" glyph-name="grid-align-center-bottom" data-tags="grid.align.center.bottom" d="M704 320v256h256v-256h-256zM320 0v256h-256v-256h256zM640 320v256h-256v-256h256zM960 0v256h-256v-256h256zM384 0v256h256v-256h-256zM576 64v128h-128v-128h128zM64 640h256v256h-256v-256zM640 640v256h-256v-256h256zM320 320v256h-256v-256h256zM960 640v256h-256v-256h256z" />
<glyph unicode="&#xe9b3;" glyph-name="grid-align-center-left" data-tags="grid.align.center.left" d="M384 256h256v-256h-256v256zM64 640h256v256h-256v-256zM384 320h256v256h-256v-256zM64 0h256v256h-256v-256zM64 576h256v-256h-256v256zM128 384h128v128h-128v-128zM704 896v-256h256v256h-256zM704 320h256v256h-256v-256zM384 640h256v256h-256v-256zM704 0h256v256h-256v-256z" />
<glyph unicode="&#xe9b4;" glyph-name="grid-align-center-middle" data-tags="grid.align.center.middle" d="M384 256h256v-256h-256v256zM64 640h256v256h-256v-256zM64 320h256v256h-256v-256zM64 0h256v256h-256v-256zM384 576h256v-256h-256v256zM448 384h128v128h-128v-128zM704 896v-256h256v256h-256zM704 320h256v256h-256v-256zM384 640h256v256h-256v-256zM704 0h256v256h-256v-256z" />
<glyph unicode="&#xe9b5;" glyph-name="grid-align-center-right" data-tags="grid.align.center.right" d="M640 256h-256v-256h256v256zM960 640h-256v256h256v-256zM640 320h-256v256h256v-256zM960 0h-256v256h256v-256zM960 576h-256v-256h256v256zM896 384h-128v128h128v-128zM320 896v-256h-256v256h256zM320 320h-256v256h256v-256zM640 640h-256v256h256v-256zM320 0h-256v256h256v-256z" />
<glyph unicode="&#xe9b6;" glyph-name="grid-align-center-top" data-tags="grid.align.center.top" d="M320 576v-256h-256v256h256zM704 896v-256h256v256h-256zM384 576v-256h256v256h-256zM64 896v-256h256v256h-256zM640 896v-256h-256v256h256zM448 832v-128h128v128h-128zM960 256h-256v-256h256v256zM384 256v-256h256v256h-256zM704 576v-256h256v256h-256zM64 256v-256h256v256h-256z" />
<glyph unicode="&#xe9b7;" glyph-name="grid-align-top-left" data-tags="grid.align.top.left" d="M320 576v-256h-256v256h256zM704 896v-256h256v256h-256zM384 576v-256h256v256h-256zM384 896v-256h256v256h-256zM320 896v-256h-256v256h256zM128 832v-128h128v128h-128zM960 256h-256v-256h256v256zM384 256v-256h256v256h-256zM704 576v-256h256v256h-256zM64 256v-256h256v256h-256z" />
<glyph unicode="&#xe9b8;" glyph-name="grid-align-top-right" data-tags="grid.align.top.right" d="M640 640h-256v256h256v-256zM960 256h-256v-256h256v256zM640 576h-256v-256h256v256zM960 576h-256v-256h256v256zM960 640h-256v256h256v-256zM896 832h-128v-128h128v128zM320 0v256h-256v-256h256zM320 576h-256v-256h256v256zM640 256h-256v-256h256v256zM320 896h-256v-256h256v256z" />
<glyph unicode="&#xe9b9;" glyph-name="hdd" data-tags="hdd" d="M924.4 786c-8.2 62-48.8 110-108.8 110h-606.8c-59.8 0-100.8-48-109.2-110.4l-66.2-508.6c33.6 27.8 75.8 43 122.6 43h712c46.8 0 89.2-15 122.8-43l-66.4 509zM768 495.6c0-61.4-54-111.6-119.8-111.6h-272.2c-65.8 0-120 50.2-120 111.6v224.2c0 61.4 54.2 112.2 120 112.2h272.2c65.8 0 119.8-50.8 119.8-112.2 0 0 0-224.2 0-224.2zM362 768h22v-112c0-13.8 11.6-16 25.4-16h204.6c13.8 0 26 2.2 26 16v112h28.4c30.6 0 37.6-25 37.6-54.8v-211c0-30-25-54.2-55.6-54.2h-277.6c-30.6 0-54.8 24.4-54.8 54.2v211c0 29.8 13.4 54.8 44 54.8v0zM896 256h-768c-70.6 0-128-57.4-128-128v0c0-70.6 57.4-128 128-128h768c70.6 0 128 57.4 128 128v0c0 70.6-57.4 128-128 128zM960 128c0-35.4-28.6-64-64-64v0c-35.4 0-64 28.6-64 64v0c0 35.4 28.6 64 64 64v0c35.4 0 64-28.6 64-64v0z" />
<glyph unicode="&#xe9ba;" glyph-name="headphones" data-tags="headphones" d="M256 384h64v-384h-64v384zM704 384h64v-384h-64v384zM928 384h-4l-2 99.2c0 221-195.2 406.2-408 412.6-2.4 0-4.6 0-7 0-51-0.4-99.8-9.8-145-27-46-18.8-88.4-47.4-127.2-85.2-78-75.6-134.8-177.2-134.8-285.8v-113.8h-4c-53 0-96-43-96-96v-192c0-53 43-96 96-96h96v480c0 176.4 141.6 320 318 320h4c176.4 0 318-143.6 318-320v-480h96c53 0 96 43 96 96v192c0 53-43 96-96 96z" />
<glyph unicode="&#xe9bb;" glyph-name="heart" data-tags="heart" d="M721.2 896c-90.8 0-164.6-58.4-209.2-107.6-44.8 47.8-118.4 107.6-209.2 107.6-167.2 0-302.8-137-302.8-305.8 0-293.8 471.2-566.2 491-578.2l21-12 21 12c21.2 12 491 285.8 491 578.2 0 168.8-135.6 305.8-302.8 305.8zM701.4 291.6c-72-64-145-114-189.2-142.4-50.2 32.2-125.8 84.6-198 149.6-120 108.4-186.2 211.8-186.2 291.4 0 98 78.4 177.8 174.8 177.8 46.2 0 92.4-42 115.8-67.2l94.8-101.4 93.4 102.6c18 19.8 65.2 65.8 114.6 65.8 96.4 0 174.8-79.8 174.8-177.8-0.2-81-69.2-187-194.8-298.4v0z" />
<glyph unicode="&#xe9bc;" glyph-name="heart-alt" data-tags="heart.alt" d="M721.2 896c-90.8 0-164.6-58.4-209.2-107.6-44.8 47.8-118.4 107.6-209.2 107.6-167.2 0-302.8-137-302.8-305.8 0-293.8 471.2-566.2 491-578.2l21-12 21 12c21.2 12 491 285.8 491 578.2 0 168.8-135.6 305.8-302.8 305.8z" />
<glyph unicode="&#xe9bd;" glyph-name="help" data-tags="help" d="M512 896c-247.4 0-448-200.6-448-448s200.6-448 448-448 448 200.6 448 448c-0.2 247.4-200.6 447.8-448 448zM693 802c74.6-38 135.2-98.6 173.6-173.4l-97.4-29c-25.6 43.4-61.8 79.4-105.2 105.2l29 97.2zM331 802v0 0 0l29.2-97.2c-43.4-25.8-79.6-61.8-105.2-105.2l-97.4 29c38.2 74.6 98.8 135.4 173.4 173.4v0zM331 93.4c-74.6 38.2-135.2 99-173.4 173.6l97.4 29.2c25.6-43.4 61.8-79.6 105.2-105.4l-29.2-97.4zM770 448c0-141.4-114.6-256-256-256v0c-141.4 0-256 114.6-256 256v0c0 141.4 114.6 256 256 256v0c141.4 0 256-114.6 256-256v0zM693 93.4l-29.2 97.4c43.4 25.6 79.6 61.8 105.4 105.2l97.4-29.2c-38.4-74.4-99-135-173.6-173.4v0z" />
<glyph unicode="&#xe9be;" glyph-name="history" data-tags="history" d="M1024 448c0-247.4-200.6-448-448-448-128.6 0-244.6 54.2-326.2 141l78.2 104.4c58.8-71.6 148.2-117.4 248-117.4 176.8 0 320.6 143.6 320.6 320s-143.8 320-320.6 320-320.6-143.6-320.6-320h128.6l-192-256-192 256h128c0 247.4 200.6 448 448 448s448-200.6 448-448zM640 448v192h-128v-320h256v128h-128z" />
<glyph unicode="&#xe9bf;" glyph-name="home" data-tags="home" d="M384 298v-298h-116.2c-78.8 0-139.8 60.8-139.8 140v329.4l384 277.4 384-277.4v-329.4c0-79.2-57.4-140-136.2-140h-119.8v298.6c0 44.2-40.2 85.4-84.2 85.4h-88c-44 0-84-42-84-86h0.2zM89.4 498c-15.8-12-38.2-8.8-50.2 6.8s-8.8 38 6.8 49.8l444.2 334.2c12.8 9.6 30.4 9.6 43.4 0l444.2-334.2c15.8-11.8 18.8-34.2 6.8-49.8s-34.4-18.8-50.2-6.8l-422.6 317.8-422.4-317.8z" />
<glyph unicode="&#xe9c0;" glyph-name="hourglass" data-tags="hourglass" d="M768 260c0 10-4.6 19-12.4 25.6l-197.6 162.4 197.6 173.4c7.8 6.6 12.4 15.4 12.4 26.6v120h-512v-120c0-10 4.6-20 12.4-26.6l195.6-173.4-195.6-162.4c-7.8-6.6-12.4-14.6-12.4-25.6v-132h512v132zM864 832h-704c-17.6 0-32 14.4-32 32v0c0 17.6 14.4 32 32 32h704c17.6 0 32-14.4 32-32v0c0-17.6-14.4-32-32-32zM864 0h-704c-17.6 0-32 14.4-32 32v0c0 17.6 14.4 32 32 32h704c17.6 0 32-14.4 32-32v0c0-17.6-14.4-32-32-32z" />
<glyph unicode="&#xe9c2;" glyph-name="html5" data-tags="html5" d="M512 171.2l202.2 56.8 27.4 284h-357.6l-9 128h375.4l10 96h-496.8l27.8-288h348.6l-12.4-144.4-110.4-29.8-110.4 29.8-6.8 80.4h-104.6l14.4-156.6 202.2-56.2zM128 896h768l-64-808-320-88-320 89.6-64 806.4z" />
<glyph unicode="&#xe9c3;" glyph-name="icecream" data-tags="icecream" d="M697.4 500c-14.6-4-29.8-7.2-45.8-7.2-59.6 0-111 31.2-139.6 77.4-28.2-46-80-77.4-139.6-77.4-16 0-31.2 3-45.8 7.2l185.4-500 185.4 500zM372.6 538c40.4 0 76 19.6 96.8 49.8-79 18-138.2 84.4-142.6 164.8-41.6-17-70.8-56.6-70.8-102.8 0.2-61.8 52.2-111.8 116.6-111.8v0zM555 587.6c20.8-30.2 56.4-50 96.8-50 64.2 0 116.2 50.2 116.2 112 0 46.2-29.2 86-70.8 103-4.2-80.4-63.4-147-142.2-165zM512.2 896c77.2 0 139.6-60.2 139.6-134.4s-62.4-134.4-139.6-134.4-139.6 60.2-139.6 134.4 62.4 134.4 139.6 134.4z" />
<glyph unicode="&#xe9c4;" glyph-name="id" data-tags="id" d="M960 832h-896c-35.4 0-64-28.6-64-64v-640c0-35.4 28.6-64 64-64h896c35.4 0 64 28.6 64 64v640c0 35.4-28.6 64-64 64zM320 704c70.6 0 128-57.4 128-128s-57.4-128-128-128-128 57.4-128 128 57.4 128 128 128zM486 128h-332c-31.6 0-54.4 29.8-46.4 60.4 29.8 114.4 113.6 195.6 212.4 195.6s182.6-81.2 212.4-195.6c8-30.6-14.8-60.4-46.4-60.4zM896 544c0-17.6-14.4-32-32-32h-320c-17.6 0-32 14.4-32 32v0c0 17.6 14.4 32 32 32h320c17.6 0 32-14.4 32-32v0zM896 672c0-17.6-14.4-32-32-32h-320c-17.6 0-32 14.4-32 32v0c0 17.6 14.4 32 32 32h320c17.6 0 32-14.4 32-32v0z" />
<glyph unicode="&#xe9c5;" glyph-name="inbox" data-tags="inbox" d="M738.6 418l-226.4-226-226.2 226.2 90.6 90.6 71.4-71.4v266.6h128v-267.2l72 72 90.6-90.8zM960 832v-768c0-35.4-28.6-64-64-64h-768c-35.4 0-64 28.6-64 64v768c0 35.4 28.6 64 64 64h768c35.4 0 64-28.6 64-64zM832 768h-640v-576h139c26.4-74.6 97.4-128 181-128s154.8 53.4 181 128h139v576z" />
<glyph unicode="&#xe9c6;" glyph-name="indent" data-tags="indent" d="M960 768h-896v128h896v-128zM960 0v128h-896v-128h896zM960 512v128h-512v-128h512zM960 256v128h-512v-128h512zM103.2 259.8l268.4 165.4c16.8 10.4 16.8 35.2 0 45.6l-268.4 165.2c-17.2 10.8-39.2-2-39.2-22.6v-330.8c0-20.8 22-33.6 39.2-22.8v0z" />
<glyph unicode="&#xe9c7;" glyph-name="info-sign" data-tags="info.sign" d="M512 896c-247.4 0-448-200.6-448-448s200.6-448 448-448 448 200.6 448 448-200.6 448-448 448zM512 128c-176.4 0-320 143.6-320 320s143.6 320 320 320 320-143.6 320-320-143.6-320-320-320zM576 192h-128v320h128v-320zM576 576h-128v128h128v-128z" />
<glyph unicode="&#xe9c8;" glyph-name="instagram" data-tags="instagram" d="M706 896h-388.4c-140.2 0-253.6-113.4-253.6-253.6v-389c0-140 113.4-253.6 253.6-253.6h389c140 0 253.6 113.4 253.6 253.6v389c-0.4 140.2-114.2 253.6-254.2 253.6v0zM863.8 254c0-88-70.6-158-157.6-158h-388.6c-86.8 0-157.6 70.4-157.6 157.6v388.8c0 86.8 70.6 157.6 157.6 157.6h389c86.8 0 157.6-70.6 157.6-157.6l-0.4-388.4zM512 640c-106 0-192-86-192-192s86-192 192-192 192 86 192 192-86.2 192-192 192zM512 352.2c-53 0-96 43-96 96s43 96 96 96 96-43 96-96-43.2-96-96-96zM831.8 640c0-35.4-28.6-64-64-64s-64 28.6-64 64 28.6 64 64 64c35.4 0 64-28.6 64-64z" />
<glyph unicode="&#xe9c9;" glyph-name="invoice" data-tags="invoice" d="M832 896h-640c-35.4 0-64-28.6-64-64v-775.8c0-20.6 24.4-33.6 39.8-20 30.8 27.2 71 76.4 88.2 91 20-22 81.4-90.8 111.2-120.2 9.4-9.2 24.2-9.2 33.6 0 29.2 28.6 88.6 95.2 111.2 120.2 19.4-21.2 81.2-90.6 111.2-120.2 9.4-9.2 24.2-9.2 33.6 0 29 28.4 87.8 94.6 111.2 120.2 14.6-12.4 56.4-61 88.2-89 15.6-13.6 39.8-2.6 39.8 18v775.8c0 35.4-28.6 64-64 64zM768 295.4l-11.2 9.6-83.4-91.6c-4.8-5.4-11.2-12.4-18.6-20.6-4.4-5-9.4-10.6-14.8-16.4-6.6 7.4-12.8 14.2-18 20-6.4 7-11.6 12.8-15.4 17l-94.6 103.8-94.6-103.8c-4.6-5.2-10.8-12-18-20-4.6-5.2-9.8-10.8-15.4-17-6.4 7.2-12.4 13.8-17.6 19.4-6.4 7.2-12 13.2-15.8 17.6l-83.2 91.4-11.4-9.6v472.8h512v-472.6zM320 704h384v-128h-384v128zM320 448h384v-64h-384v64z" />
<glyph unicode="&#xe9ca;" glyph-name="ip" data-tags="ip" d="M960 128h-320v64h-64v128h192c35.4 0 64 28.6 64 64v448c0 35.4-28.6 64-64 64h-512c-35.4 0-64-28.6-64-64v-448c0-35.4 28.6-64 64-64h192v-128h-64v-64h-320v-64h320v-64h256v64h320v64zM320 448v320h384v-320h-384z" />
<glyph unicode="&#xe9cb;" glyph-name="key" data-tags="key" d="M192 832v-320c0-35.4 28.6-64 64-64h128v-384c0-35.4 28.6-64 64-64h256v128h-128v64h128v64h-128v192h192c35.4 0 64 28.6 64 64v320c0 35.4-28.6 64-64 64h-512c-35.4 0-64-28.6-64-64zM704 768v-128h-384v128h384z" />
<glyph unicode="&#xe9cc;" glyph-name="laptop" data-tags="laptop" d="M128 256h768c35.4 0 64 28.6 64 64v448c0 35.4-28.6 64-64 64h-768c-35.4 0-64-28.6-64-64v-448c0-35.4 28.6-64 64-64zM192 704h640v-320h-640v320zM640 160v32h384v-128h-1024v128h384v-32c0-17.6 14.4-32 32-32h192c17.6 0 32 14.4 32 32z" />
<glyph unicode="&#xe9ce;" glyph-name="layer" data-tags="layer" d="M511.8 896l-447.8-358.4 447.8-358.4 447.8 358.4-447.8 358.4zM222.4 537.6l289.4 231.6 289.6-231.6-289.6-231.6-289.4 231.6zM881 421.8l79-63.4-448-358.4-448 358.4 79.2 63.4 368.8-295.2 369 295.2z" />
<glyph unicode="&#xe9cf;" glyph-name="layer-alt" data-tags="layer.alt" d="M511.8 896l-447.8-358.4 447.8-358.4 447.8 358.4-447.8 358.4zM881 421.8l79-63.4-448-358.4-448 358.4 79.2 63.4 368.8-295.2 369 295.2z" />
<glyph unicode="&#xe9d0;" glyph-name="leaf" data-tags="leaf" d="M736 650c-403.2-90-497.2-366.6-590.4-598.4l84.6-29.6 42.6 103c21.6-7.6 44-13.4 60-13.4 492.8 0 627.2 762.4 627.2 762.4-44.8-89.6-358.4-100.8-582.4-145.8s-313.6-235.4-313.6-325 78.4-168 78.4-168c145.6 414.6 593.6 414.8 593.6 414.8v0 0z" />
<glyph unicode="&#xe9d1;" glyph-name="line-chart" data-tags="line.chart" d="M896 730c-70.8 0-128-57.4-128-128.2 0-24.4 6.8-47.2 18.6-66.4l-103.4-120.6c-13.4 4.8-28 7.6-43.2 7.6-20.6 0-40.2-5-57.6-13.6l-98.4 91.8c1.4 7.8 2.4 16 2.4 24.2 0 70.8-57.2 128-128 128s-128-57.2-128-128c0-21 5.2-40.6 14-58.2l-48.4-63.6c-19.6 12.4-43 19.6-67.8 19.6-70.8 0-128-57.2-128-128s57.2-128 128-128 128 57.2 128 128c0 17.2-3.4 33.4-9.4 48.4l52.4 68.8c17.8-9.2 38-14.6 59.4-14.6 33.8 0 64.4 13.2 87.4 34.6l81.6-76.2c-9.8-18-15.4-38.8-15.4-60.8 0-70.8 57.2-128 128-128s128 57.2 128 128c0 27.4-8.8 53-23.6 74l99.6 116.2c15.8-7 33.4-11 51.8-11 70.8 0 128 57.4 128 128.2 0 70.4-57.2 127.8-128 127.8v0zM128 243.2c-28.2 0-51.2 23-51.2 51.2s23 51.2 51.2 51.2 51.2-23 51.2-51.2c0-28.2-23-51.2-51.2-51.2zM358.4 473.6c-7.8 0-15.2 1.8-21.8 5l-17 13c-7.6 9-12.4 20.6-12.4 33.4 0 28.2 23 51.2 51.2 51.2s51.2-23 51.2-51.2c0-28.2-23-51.4-51.2-51.4zM640 243.2c-28.2 0-51.2 23-51.2 51.2s23 51.2 51.2 51.2c28.2 0 51.2-23 51.2-51.2s-23-51.2-51.2-51.2zM896 550.4c-28.2 0-51.2 23-51.2 51.2s23 51.2 51.2 51.2 51.2-23 51.2-51.2c0-28.2-23-51.2-51.2-51.2z" />
<glyph unicode="&#xe9d2;" glyph-name="lock" data-tags="lock" d="M768 512v128c0 141.4-114.6 256-256 256v0c-141.4 0-256-114.6-256-256v-128h-64c-35.4 0-64-28.6-64-64v-320c0-70.6 57.4-128 128-128h512c70.6 0 128 57.4 128 128v320c0 35.4-28.6 64-64 64h-64zM544 264.6v-104.6c0-17.6-14.4-32-32-32s-32 14.4-32 32v104.6c-19.2 11-32 31.8-32 55.4 0 35.4 28.6 64 64 64s64-28.6 64-64c0-23.6-12.8-44.4-32-55.4zM640 512h-256v128c0.6 72 57.8 127 128 127s127.4-55 128-127v0-128z" />
<glyph unicode="&#xe9d3;" glyph-name="long-arrow-down" data-tags="long.arrow.down" d="M783.6 271.4l-271.6-271.4-271.6 271.4 90.6 90.6 117-117v651h128v-651l117 117 90.6-90.6z" />
<glyph unicode="&#xe9d4;" glyph-name="long-arrow-down-left" data-tags="long.arrow.down.left" d="M576 128h-384v384h128v-164.4l461 460.2 90.8-91-460-460.8h164.2v-128z" />
<glyph unicode="&#xe9d5;" glyph-name="long-arrow-down-right" data-tags="long.arrow.down.right" d="M832 512v-384h-384v128h164.4l-460.2 461 91 90.8 460.8-460v164.2h128z" />
<glyph unicode="&#xe9d6;" glyph-name="long-arrow-left" data-tags="long.arrow.left" d="M335.4 176.4l-271.4 271.6 271.4 271.6 90.6-90.6-117-117h651v-128h-651l117-117-90.6-90.6z" />
<glyph unicode="&#xe9d7;" glyph-name="long-arrow-right" data-tags="long.arrow.right" d="M688.6 719.6l271.4-271.6-271.4-271.6-90.6 90.6 117 117h-651v128h651l-117 117 90.6 90.6z" />
<glyph unicode="&#xe9d8;" glyph-name="long-arrow-up" data-tags="long.arrow.up" d="M783.6 624.6l-271.6 271.4-271.6-271.4 90.6-90.6 117 117v-651h128v651l117-117 90.6 90.6z" />
<glyph unicode="&#xe9d9;" glyph-name="long-arrow-up-left" data-tags="long.arrow.up.left" d="M192 384v384h384v-128h-164.4l460.2-461-91-90.8-460.8 460v-164.2h-128z" />
<glyph unicode="&#xe9da;" glyph-name="long-arrow-up-right" data-tags="long.arrow.up.right" d="M448 768h384v-384h-128v164.4l-461-460.2-90.8 91 460 460.8h-164.2v128z" />
<glyph unicode="&#xe9db;" glyph-name="magnet" data-tags="magnet" d="M128 192h192v-192h-192v192zM320 512c0 106 86 192 192 192v0c106 0 192-86 192-192v-256h192v256c0 212-172 384-384 384v0c-212 0-384-172-384-384v-256h192v256zM704 0h192v192h-192v-192z" />
<glyph unicode="&#xe9dc;" glyph-name="male" data-tags="male" d="M686.6 512h-349.4c-90.6 0-147.8-99-99.8-175l175.2-282c22.4-37 61.2-55 99.8-55 38.8 0 77.4 18 99.8 55l174.2 282c48 77-8 175-99.8 175zM665.2 384l-152.6-247.2-153.8 247.2h306.4zM409.8 618c27.8-28 64.6-41.6 101.6-41.6 36 0 71.8 12.6 98.6 38l32.8 30.4c48.2 45.2 57.4 115.8 21.6 170.8-34.8 54-93.4 80.4-151.8 80.4-59.6 0-119-27.4-154-83.4-33.8-53-24.6-121.4 20.6-165.6l30.6-29zM466.2 743.8l0.8 1.2c12.6 20.2 33.8 23.2 45.2 23.2 9 0 31.6-2.2 44.4-22l0.4-0.6c0.8-1.4 2.2-3.4-1.8-7.2l-33.2-30.8-0.8-0.8c-1.2-1.2-4.8-2.8-10-2.8-2.2 0-7.8 0.4-11.4 4l-0.8 0.8-30.8 29.4c-1.8 2.2-2.6 4.6-2 5.6v0z" />
<glyph unicode="&#xe9dd;" glyph-name="male-gender" data-tags="male.gender" d="M512 832v-128h165.4l-163.4-163.4c-98.2 58-226.8 44.8-311-39.6-100-100-100-262 0-362s262-100 362 0c84.4 84.4 97.6 213 39.6 311l163.4 163.4v-165.4h128v384h-384zM474.6 229.4c-50-50-131.2-50-181 0-50 50-50 131.2 0 181 50 50 131.2 50 181 0 49.8-49.8 49.8-131 0-181z" />
<glyph unicode="&#xe9de;" glyph-name="map" data-tags="map" d="M176 352l144 64-96-320-224-96 176 352zM288 96l192-96v368l-96 46-96-318zM848 352l-144 64 96-320 224-96-176 352zM640 414l-96-46v-368l192 96-96 318zM644 612l-132-164.4-132 164.8c-71.4 89.2-40.4 223.2 64.2 269 21 9.2 44 14.4 67.8 14.4s46.8-5.2 67.8-14.6c104.4-45.8 135.8-179.2 64.2-269.2v0zM576 704c0 35.4-28.6 64-64 64s-64-28.6-64-64 28.6-64 64-64 64 28.6 64 64z" />
<glyph unicode="&#xe9df;" glyph-name="maple-leaf" data-tags="maple.leaf" d="M737.6 265.6l194.4 173.4-46 43.6 21.8 140.8-126.4-12.6-39.4 58.8-73.6-66.2 17.6 178.6-82-20.2-91.6 134.2-91.2-134.2-85.4 20.2 21.6-179.4-77 67-41-58.6-123 11.8 23.4-139.2-47.8-45.2 193.4-174.4-5.8-76.2 171.6 7.6-12.6-195.2h144.8l-10.8 196.2 171.6-8.4-6.6 77.6z" />
<glyph unicode="&#xe9e0;" glyph-name="marker" data-tags="marker" d="M512 896c-154.6 0-280-125.4-280-280 0-41.8 9.2-81.4 25.6-117l213.2-462.8c10.2-22.2 24.8-36.2 41.2-36.2s31 13.8 41.2 36l213.2 462.8c16.4 35.6 25.6 75.2 25.6 117 0 154.8-125.4 280.2-280 280.2v0zM512 448c-88.4 0-160 71.6-160 160s71.6 160 160 160 160-71.6 160-160-71.6-160-160-160z" />
<glyph unicode="&#xe9e1;" glyph-name="mask" data-tags="mask" d="M755.4 704c-107.8 0-379.2 0-487 0-148.2 0-268.4-114.6-268.4-256s120.2-256 268.6-256c107.8 0 161.4 147.8 243.4 147.8s135.6-147.8 243.4-147.8c148.4 0 268.6 114.6 268.6 256s-120.2 256-268.6 256zM265.2 362.2c-69.2 0-125.2 57.8-125.2 131.8 0 72 250.2 72 250.2 0 0-74-56-131.8-125-131.8zM758.8 362.2c-69 0-125 57.8-125 131.8 0 72 250.2 72 250.2 0 0-74-56-131.8-125.2-131.8z" />
<glyph unicode="&#xe9e2;" glyph-name="medal" data-tags="medal" d="M512 578l84.6-204 219.4-17.6-167.2-143.6 51-214.8-187.8 115.2-187.8-115.2 51 214.8-167.2 143.6 219.4 17.6 84.6 204zM384 896v-384h-128v384h128zM768 896v-384h-128v384h128zM576 896v-256h-128v256h128z" />
<glyph unicode="&#xe9e3;" glyph-name="membership" data-tags="membership" d="M960 896h-896c-35.4 0-64-28.6-64-64v-512c0-35.4 28.6-64 64-64h256v-256l192 128 192-128v256h256c35.4 0 64 28.6 64 64v512c0 35.4-28.6 64-64 64zM896 768v-192h-768v192h768zM128 384v64h768v-64h-768z" />
<glyph unicode="&#xe9e4;" glyph-name="mouse" data-tags="mouse" d="M448 896c-161.4-20-256-154-256-320h256v320zM192 320c0-180.6 139.6-320 320-320s320 139.4 320 320v128h-639.8c0 0-0.2-128-0.2-128zM576 896v-320h256c0 166-94 300-256 320z" />
<glyph unicode="&#xe9e5;" glyph-name="microphone" data-tags="microphone" d="M704 448v0c0-106-86-192-192-192v0c-106 0-192 86-192 192h-128c0-154.8 110-284 256-313.6v-134.4h128v134.4c146 29.6 256 158.8 256 313.6v0h-128zM512 896v0c-70.6 0-128-57.4-128-128v-320c0-70.6 57.4-128 128-128v0c70.6 0 128 57.4 128 128v320c0 70.6-57.4 128-128 128zM448 768c0 35.4 28 64 64 64v-0.2c34 0 64-28.6 64-63.8 0 0 0-126 0-128h-128c0 2 0 128 0 128z" />
<glyph unicode="&#xe9e6;" glyph-name="minus" data-tags="minus" d="M960 384h-896v128h896v-128z" />
<glyph unicode="&#xe9e7;" glyph-name="minus-alt" data-tags="minus.alt" d="M768 384h-512v128h512v-128z" />
<glyph unicode="&#xe9e8;" glyph-name="money" data-tags="money" horiz-adv-x="1152" d="M1120 128h-1088c-17.6 0-32 14.4-32 32v0c0 17.6 14.4 32 32 32h1088c17.6 0 32-14.4 32-32v0c0-17.6-14.4-32-32-32zM32 0h1088c17.6 0 32 14.4 32 32v0c0 17.6-14.4 32-32 32h-1088c-17.6 0-32-14.4-32-32v0c0-17.6 14.4-32 32-32zM1152 320c0-35.4-28.6-64-64-64h-1024c-35.4 0-64 28.6-64 64v512c0 35.4 28.6 64 64 64h1024c35.4 0 64-28.6 64-64v-512zM761.2 508c0 148-201.4 112-201.4 174.2 0 20.8 16.6 29.8 35.6 29.8 60.8 0 86.4-65.4 122.2-65.4 22.4 0 35 17.6 35 39 0 40.2-39 90.2-63.4 90.2-11.8 0-21.8-6.4-29.8-6.4-4 0-37 8.4-45.6 9.8-11.8 2.6-8.6 15.6-8.6 24.6 0 33-7.2 28.6-38.2 28.6-32.4 0-34.4 1.2-34.4-31.2 0-17.6 2-19.4-15.2-22.6-62.8-12.4-116.2-64.2-116.2-129 0-70 62.8-110.8 122.8-131.6 71.2-25.2 77.2-29.2 77.2-48.6 0-21.4-33.6-27.8-48.2-27.8-102.4 0-93 90.8-138.6 90.8-17.2 0-23.8-15.6-23.8-30.4 0-26 13.2-83.6 36.4-100.4 19.2-13.6 70.6-24.6 95.8-27.8 13.2-1.2 9.8-13.6 9.8-24 0-33 8-28.6 38.2-28.6 32.4 0 34.4-0.6 34.4 31.2 0 15.6-2 21 13.8 22.2 48.2 2.8 142 47.4 142.2 133.4v0z" />
<glyph unicode="&#xe9e9;" glyph-name="move" data-tags="move" d="M768 252v132h-192v-192h130l-193.8-192-194.2 192h130v192h-192v-130l-127.6 130h-0.4v0.4l-64 65.2 192 192.2v-130h192v192h-130l193.8 192 194.2-192h-130v-192h192v128l126.8-128h1.2v-1.2l64-64.6-192-194z" />
<glyph unicode="&#xe9ea;" glyph-name="move-horizontal" data-tags="move.horizontal" d="M384 896h64v-896h-64v384h-128v-128l-192 192 192 192v-128h128v384zM960 448l-192 192v-128h-128v384h-64v-896h64v384h128v-128l192 192z" />
<glyph unicode="&#xe9eb;" glyph-name="move-vertical" data-tags="move.vertical" d="M64 320v64h896v-64h-384v-128h128l-192-192-192 192h128v128h-384zM512 896l-192-192h128v-128h-384v-64h896v64h-384v128h128l-192 192z" />
<glyph unicode="&#xe9ec;" glyph-name="movie" data-tags="movie" d="M1024 768c0 35.4-28.6 64-64 64h-896c-35.4 0-64-28.6-64-64v-640c0-35.4 28.6-64 64-64h896c35.4 0 64 28.6 64 64v640zM192 128h-128v128h128v-128zM192 320h-128v256h128v-256zM192 640h-128v128h128v-128zM384 248v400c0 23.8 25.6 35.6 44.4 20.8l266.6-198.6c14.2-11.4 14.2-33 0-44.4l-266.6-198.6c-18.8-15-44.4-3-44.4 20.8zM960 128h-128v128h128v-128zM960 320h-128v256h128v-256zM960 640h-128v128h128v-128z" />
<glyph unicode="&#xe9ed;" glyph-name="chat" data-tags="chat" d="M384 512c35.4 0 64-28.6 64-64s-28.6-64-64-64-64 28.6-64 64 28.6 64 64 64zM640 512c35.4 0 64-28.6 64-64s-28.6-64-64-64-64 28.6-64 64 28.6 64 64 64zM704 896h-384c-141.4 0-256-114.6-256-256v-576c0-35.4 28.6-64 64-64h576c141.4 0 256 114.6 256 256v384c0 141.4-114.6 256-256 256zM832 256c0-70.6-57.4-128-128-128h-512v512c0 70.6 57.4 128 128 128h384c70.6 0 128-57.4 128-128v-384z" />
<glyph unicode="&#xe9ee;" glyph-name="musical-note-playlist" data-tags="musical.note.playlist" d="M448 512h-384v-64h384v64zM64 640v-64h384v64h-384zM448 768h-384v-64h384v64zM866 476.4c-20-29.2-31-16.6-24.8 0 16 43.8-7.2 150.6-137.2 171.6v-500c-8-66-67.6-126.4-152.2-143.4-100-20.2-208 28.6-223.8 108.2s52.2 160.4 152 180.6c31 6.2 64.2 4.8 96-1.4v604h138.2c-17.2-138 295.8-211 151.8-419.6v0 0z" />
<glyph unicode="&#xe9ef;" glyph-name="musical-notes" data-tags="musical.notes" d="M864 896h-32.2l-414-127.8c-26.4-8.2-39.6-41.4-29.4-74.2v0c10-32.2 38.8-52 64.8-44.2l378.8 111.6v-69l-465.6-137.2c-11.6 12.2-28.2 20-46.4 20v0c-35.4 0-64-28.6-64-64v-196.8c-10 2.2-21.6 3.4-33 3.4-87.8 0-159-71.2-159-159s71.2-158.8 159-158.8 161 72.2 161 160v267.4l448 132v-178.4c-10 2-20.6 3.2-31.2 3.2-87.4 0.8-160-69.8-161.8-157-1.8-90.2 70.6-164 160.4-164 88.6 0 160.6 71.8 160.6 160.6 0 0.2 0 0.4 0 0.6v0 575.6c0 53-44 96-96 96v0zM224 96.2c-35.4 0-64 28.6-64 64s28.6 64 64 64 64-28.6 64-64-28.6-64-64-64zM799.8 160c-35.4 0-64 28.6-64 64s28.6 64 64 64c35.4 0 64-28.6 64-64s-28.6-64-64-64z" />
<glyph unicode="&#xe9f0;" glyph-name="mute" data-tags="mute" d="M239.8 256c-26.4 0-47.8 21.6-47.8 48.2v287.8c0 26.6 21.4 48 47.8 48h144.2v-384c0 0-144.2 0-144.2 0zM832 32.2v848.6c0 8.4-6.8 15.2-15.2 15.2h-74.2c-4 0-7.6-1.4-10.6-4l-277-247.2c-3.4-3-7-8.2-7-12.8v-368c0-4.6 3.6-9.8 7-12.8l277.4-247.2c3-2.6 6.6-4 10.4-4h74.2c8.4 0 15.2 6.8 15.2 15.2v17z" />
<glyph unicode="&#xe9f1;" glyph-name="note" data-tags="note" d="M960 551.4v-487.4c0-35.4-28.6-64-64-64h-768c-35.4 0-64 28.6-64 64v768c0 35.4 28.6 64 64 64h487.4l-137.8-128h-285.6v-640h640v285.6l128 137.8zM701.6 752l114.8-114.2-381.6-381.8h-114.8v114.2l381.6 381.8zM861.6 869c-6 6-13.8 9.2-21.8 9.2v0c-7.8 0-16.4-3.2-22.4-9.2l-56.4-56 115.6-115.6 56.4 56c11.8 11.8 11.8 32.4 0 44l-71.4 71.6z" />
<glyph unicode="&#xe9f2;" glyph-name="note-alt" data-tags="note.alt" d="M738.8 781.6l106.6-106.6-354.4-355h-107v106.6c0 0 354.8 355 354.8 355zM886 887.4c-6 5.6-13.2 8.6-20.6 8.6v0c-7.2 0-15.4-3-21-8.6l-52.6-52 107.4-107.4 52.4 52c11 11 11.4 30 0.4 40.8l-66 66.6zM512 128c-176.4 0-320 143.6-320 320s143.6 320 320 320v128c-247.4 0-448-200.6-448-448s200.6-448 448-448 448 200.6 448 448h-128c0-176.4-143.6-320-320-320z" />
<glyph unicode="&#xe9f3;" glyph-name="ordered-list" data-tags="ordered.list" d="M0 192h128v-32h-64v-64h64v-32h-128v-64h192v256h-192v-64zM64 640h64v256h-128v-64h64v-192zM0 512h112l-112-128v-64h192v64h-112l112 128v64h-192v-64zM320 832v-128h704v128h-704zM320 64h704v128h-704v-128zM320 384h704v128h-704v-128z" />
<glyph unicode="&#xe9f4;" glyph-name="outbox" data-tags="outbox" d="M286.2 478l226.4 226 226.2-226.2-91-90.6-71.8 71.4v-266.6h-128v267.2l-71.6-71.8-90.2 90.6zM960 832v-768c0-35.4-28.6-64-64-64h-768c-35.4 0-64 28.6-64 64v768c0 35.4 28.6 64 64 64h768c35.4 0 64-28.6 64-64zM832 768h-640v-576h139c26.4-74.6 97.4-128 181-128s154.8 53.4 181 128h139v576z" />
<glyph unicode="&#xe9f5;" glyph-name="outdent" data-tags="outdent" d="M960 768h-896v128h896v-128zM960 0v128h-896v-128h896zM960 512v128h-512v-128h512zM960 256v128h-512v-128h512zM344.8 259.8c17.2-10.6 39.2 2.2 39.2 22.8v330.8c0 20.6-21.8 33.4-39 22.8l-268.4-165.4c-16.8-10.4-16.8-35.2 0-45.6l268.2-165.4z" />
<glyph unicode="&#xe9f6;" glyph-name="paint-roller" data-tags="paint.roller" d="M768 800v32c0 35.4-28.6 64-64 64h-512c-35.4 0-64-28.6-64-64v-128c0-35.4 28.6-64 64-64h512c35.4 0 64 28.6 64 64v16h32v-176h-448v-480c0-35.2 28.8-64 64-64h64c35.4 0 64 28.6 64 64v384h352v352h-128z" />
<glyph unicode="&#xe9f7;" glyph-name="pan" data-tags="pan" d="M926 696v-548c0-82.2-70.6-148-152.6-148h-271c-40.4 0-78.4 16-106.4 44.4l-298 299.6c0 0 52 44.4 53.6 45 8.2 7 18.2 10.8 29.4 10.8 8.2 0 15.4-2.2 22.2-6 1.4-0.4 178.6-93.8 178.6-93.8v446c0 31 25 54 56 54s56-23 56-54v-266h30v360c0 31 27 56 58 56s54-25 54-56v-360h34v328c0 31 25 56 56 56s56-25 56-56v-328h32v216c0 31 25 56 56 56 31.2 0 56.2-25 56.2-56v0z" />
<glyph unicode="&#xe9f8;" glyph-name="paper-clip" data-tags="paper.clip" d="M888.2 825.2v0c-94.8 94.2-253 94.8-348.6-0.2l-404.6-403.4c-94.8-95.8-94.8-251 0.8-346.8l3.6-3.6c94.8-95 247.6-95 343.2 0l231.4 230.4c59.8 60 58 156.8-3.6 216.8-59.8 58.2-156.4 53.8-214.4-5.4l-183.2-183.8c-11.6-11.6-11.6-29.6 0-41.2l42.8-39.4c11.6-11.6 27.8-9 39.4 0l186.8 187.2c13.4 13.4 35.8 15.2 51.8 0 17-15.2 15.2-41.2 0-56.4l-229.6-225.8c-50-50.2-134-50.2-184 0l-2.6 1.8c-50 50.2-50 134.4 0 184.6l404.6 406c50 50.2 134 50.2 184 0l1.8-1.8c50-50.2 50-134.4 0-184.6l-0.8-1.8c-9-9-11.6-22.4-3.6-34 11.6-20.6 20.6-43 26-65.4 3.6-15.2 20.6-18.8 31.2-9 15.2 15.2 27.8 29.6 27.8 29.6 95.6 95 95.6 250-0.2 346.2z" />
<glyph unicode="&#xe9f9;" glyph-name="paper-plane" data-tags="paper.plane" d="M950.2 884.4c-14 13.4-31.4 13.4-44.8 9l-809.8-269.4c-18-4.4-31.6-22.4-31.6-40.4s9-36 27-44.8l369-143.8 144-368c4.6-18 22.6-27 40.6-27v0c18 0 36 13.4 40.6 31.4l269.8 808c5.8 14.4 9.2 31.4-4.8 45v0zM752.8 749.6l-265.8-265-243 94.4c0 0 508.8 170.6 508.8 170.6zM644.8 179.6l-94.6 242.4 265.6 264.8-171-507.2z" />
<glyph unicode="&#xe9fa;" glyph-name="pause" data-tags="pause" d="M384 128h-64c-35.4 0-64 28.6-64 64v512c0 35.4 28.6 64 64 64h64c35.4 0 64-28.6 64-64v-512c0-35.4-28.6-64-64-64zM768 192v512c0 35.4-28.6 64-64 64h-64c-35.4 0-64-28.6-64-64v-512c0-35.4 28.6-64 64-64h64c35.4 0 64 28.6 64 64z" />
<glyph unicode="&#xe9fb;" glyph-name="volume" data-tags="volume" d="M111.8 256c-26.4 0-47.8 21.6-47.8 48.2v287.8c0 26.6 21.4 48 47.8 48h146.2v-384h-146.2zM704 32.2v831.8c0 17.6-13.8 32-31.4 32h-57.8c-4 0-7.6-1.4-10.6-4l-277.2-247.2c-3.4-3-5-7.4-5-12v-369.6c0-4.6 1.6-9 5-12l277.4-247.2c3-2.6 6.6-4 10.4-4h57.8c17.6 0 31.4 14.4 31.4 32.2v0zM960 448v0c0 106-85.8 192-191.6 192h-0.4v-384h0.2c105.8 0 191.8 86 191.8 192z" />
<glyph unicode="&#xe9fc;" glyph-name="pen" data-tags="pen" d="M532.6 323.8c-192.2-170-432.2-352.6-464.8-319.8-32.8 32.8 151.2 273 319.2 465.4l145.6-145.6zM942 598.8l-68.6 68.2c29.8 44.2 38.8 75.6 35.6 100l51 51-78 78-51.8-51.8c-43.2 4-108-28.8-225.4-146-43.2-43.2-96.8-101.2-152.2-164.4l146.2-146.2c63.4 55.4 121.4 109 164.6 152.4 31 31 55.8 58.2 76 82.4l42.8-42.8-138.6-138.6c-11-11-11-28.6 0-39.6s28.6-11 39.6 0l158.8 158.4c10.6 10.4 10 28 0 39v0 0z" />
<glyph unicode="&#xe9fd;" glyph-name="pen-alt" data-tags="pen.alt" d="M64 140v-140h140l410 413.2-136.8 137-413.2-410.2zM946.6 810.4l-72.2 72.2c-17.8 17.8-46.6 17.8-64.6 0l-36.6-36.2-36.2 36.2c-17.8 17.8-46.6 17.8-64.6 0l-340.4-338.6h92l280.4 279.6 22.8-22.8-205.8-206 137.2-137.2 287.8 287.8c18 17.8 18 46.8 0.2 64.8 0 0 0 0.2 0 0.2v0z" />
<glyph unicode="&#xe9fe;" glyph-name="news" d="M896 896h-768c-35.4 0-64-28.6-64-64v-768c0-35.4 28.6-64 64-64h768c35.4 0 64 28.6 64 64v768c0 35.4-28.6 64-64 64zM192 128v640h640v-640h-640zM256 704h256v-320h-256v320zM559.8 320h-303.8v-128h512v128h-208.2zM576 512h192v-128h-192v128zM576 704h192v-128h-192v128z" />
<glyph unicode="&#xe9ff;" glyph-name="pencil" data-tags="pencil" d="M667.6 789.8l186.6-186.6 91.2 91.6c19.4 19.4 19.4 51.8 0 70.2l-116.6 116.6c-18.4 19.4-50.8 19.4-70.2 0l-91-91.8zM801.6 550.4l-186.6 186.6-551-550.4v-186.6h186.6c0 0 551 550.4 551 550.4z" />
<glyph unicode="&#xea00;" glyph-name="phone" data-tags="phone" d="M64 812c0-448.8 363.8-812 812-812 19.8 0 36.6 13.6 41 32.6l42 182c4.6 19.8-5.8 40-24.4 48.2l-196 84c-17.2 7.4-37 2.4-49-12l-86.8-106c-137 64.2-247 175.8-310 310l106 86.8c14.6 11.8 19.4 31.8 12 49l-84 196c-8 18.6-28.4 28.8-48.2 24.4l-182-42c-19.2-4.4-32.6-21.4-32.6-41v0 0z" />
<glyph unicode="&#xea01;" glyph-name="phone-call" data-tags="phone.call" d="M64 812c0-448.8 363.8-812 812-812 19.8 0 36.6 13.6 41 32.6l42 182c4.6 19.8-5.8 40-24.4 48.2l-196 84c-17.2 7.4-37 2.4-49-12l-86.8-106c-137 64.2-247 175.8-310 310l106 86.8c14.6 11.8 19.4 31.8 12 49l-84 196c-8 18.6-28.4 28.8-48.2 24.4l-182-42c-19.2-4.4-32.6-21.4-32.6-41v0 0zM959.8 448.6h-64c-0.2 211.4-172.4 383.4-383.8 383.4-0.2 0-0.4 0-0.6 0v64c0.2 0 0.4 0 0.6 0 247.2 0 447.4-200.2 447.8-447.4zM831.8 448.6h-64c-0.2 141-114.8 255.4-255.8 255.4-0.2 0-0.4 0-0.6 0v64c0.2 0 0.4 0 0.6 0 176.2 0 319.6-143.2 319.8-319.4z" />
<glyph unicode="&#xea02;" glyph-name="photo" data-tags="photo" horiz-adv-x="1152" d="M608 640c53 0 96-43 96-96s-43-96-96-96-96 43-96 96 43 96 96 96zM1088 896h-1024c-35.4 0-64-28.6-64-64v-768c0-35.4 28.6-64 64-64h1024c35.4 0 64 28.6 64 64v768c0 35.4-28.6 64-64 64zM808 96h-92l-352 352-236-236v556h896v-504l-192 186-207.2-169.2c0 0 183.2-184.8 183.2-184.8z" />
<glyph unicode="&#xea03;" glyph-name="photo-alt" data-tags="photo.alt" horiz-adv-x="1152" d="M0 768v-640c0-70.6 57.4-128 128-128h896c70.6 0 128 57.4 128 128v640c0 70.6-57.4 128-128 128h-896c-70.6 0-128-57.4-128-128zM1019.8 149.8c-6.6-14.4-20-21.8-35.8-21.8h-816c-23.4 2-41.8 19.6-40.6 43 0.4 7 2.4 14 6 20l282.6 431.2c7.2 11 19 17.6 32.2 17.8 13.6 0.2 27-6.4 34.8-17.6l177-282.4 78.4 93.6c8.2 9.6 21.2 14.4 33.6 14.4 12.2 0.4 23-4.6 30.4-14.4l211.8-241.2c10-11.8 12.2-28.6 5.6-42.6v0z" />
<glyph unicode="&#xea04;" glyph-name="photos" data-tags="photos" horiz-adv-x="1280" d="M736 544c53 0 96-43 96-96s-43-96-96-96-96 43-96 96 43 96 96 96zM1216 768h-1024c-35.4 0-64-28.6-64-64v-640c0-35.4 28.6-64 64-64h1024c35.4 0 64 28.6 64 64v640c0 35.4-28.6 64-64 64zM936 64h-92l-352 288-236-236v524h896v-472l-192 186-207.2-128 183.2-162zM0 864v-800h64v768h960v64h-992c-17.6 0-32-14.4-32-32z" />
<glyph unicode="&#xea05;" glyph-name="pie-chart" data-tags="pie.chart" d="M960 448c0-247.4-200.6-448-448-448s-448 200.6-448 448h128c0-176.4 143.6-320 320-320s320 143.6 320 320-143.6 320-320 320v128c247.4 0 448-200.6 448-448zM512 704c-141.2 0-256-114.8-256-256s114.8-256 256-256 256 114.8 256 256h-256v256z" />
<glyph unicode="&#xea06;" glyph-name="pill" data-tags="pill" d="M883.2 819.2v0c-102.4 102.4-268.6 102.4-371.2 0l-371.2-371.2c-102.4-102.4-102.4-268.6 0-371.2v0c102.4-102.4 268.6-102.4 371.2 0l371.2 371.2c102.4 102.4 102.4 268.6 0 371.2zM628 332l-162.4 162.4-291.8-291.8c-23 58.8-10.8 128.4 36.6 175.8l371.2 371.2c64 64 168 64 232 0s64-168 0-232l-185.6-185.6z" />
<glyph unicode="&#xea07;" glyph-name="pin" data-tags="pin" d="M896 800v64c0 17.6-14.4 32-32 32h-704c-17.6 0-32-14.4-32-32v-64c0-17.6 14.4-32 32-32h96v-320h-96c-17.6 0-32-14.4-32-32v-64c0-17.6 14.4-32 32-32h288v-256c0-35.4 28.6-64 64-64v0c35.4 0 64 28.6 64 64v256h288c17.6 0 32 14.4 32 32v64c0 17.6-14.4 32-32 32h-96v320h96c17.6 0 32 14.4 32 32zM640 448h-256v320h256v-320z" />
<glyph unicode="&#xea08;" glyph-name="mug" data-tags="mug" d="M192 896h64v-128h-64v128zM384 896h64v-128h-64v128zM576 896h64v-128h-64v128zM832 576h-64v64c0 35.4-28.6 64-64 64h-576c-35.4 0-64-28.6-64-64v-512c0-70.6 57.4-128 128-128h448c70.6 0 128 57.4 128 128v0h64c70.6 0 128 57.4 128 128v192c0 70.6-57.4 128-128 128zM640 128h-448v448h448v-448zM832 256h-64v192h64v-192z" />
<glyph unicode="&#xea09;" glyph-name="pinterest" data-tags="pinterest" d="M160 896h704c52.8 0 96-43.2 96-96v-704c0-52.8-43.2-96-96-96h-486.8c20 33.4 44.8 80.6 54.8 117.4l32.8 114.4c15.4-30.4 61.2-55.2 108-55.2 146.8 0 248.8 133 248.8 298.6 0 157.8-128.4 276.8-294.6 276.8-207 0-315-138.4-315-290.2 0-70.6 35.8-157.8 96.6-185.6 8.4-5.4 14-2.4 14 5.4l14 52.8c1.4 7 1.4 11-3 14-22 27.4-35.8 69.2-35.8 110.6 0 106.6 80.2 207.6 216 207.6 119 0 201.6-78.6 201.6-193.6 0-130-66.2-221.6-151.8-221.6-48.8 0-81.6 41.8-73.6 88.6 14 56.8 41.8 116.4 41.8 157.8 0 38.8-19.4 69.2-61.2 69.2-46.8 0-88.2-49.8-88.2-116.4 0-43.8 13.4-71.6 13.4-71.6l-55.2-238.2c-8-41.4-4-102.8 0-140.8h-180.6c-52.8 0-96 43.4-96 96.2v703.8c0 52.8 43.2 96 96 96z" />
<glyph unicode="&#xea0a;" glyph-name="plane" data-tags="plane" d="M920.8 545.8l-190-31.4-262 331.8-103.6-17 158.8-349-209.6-34.6-95.4 228-114-18.8 122.4-412.8 721.4 119.2c48.8 8.2 81.8 53.8 74 104.8s-53 87.8-102 79.8v0zM0 64h640v64h-640v-64z" />
<glyph unicode="&#xea0b;" glyph-name="play" data-tags="play" d="M256 162.8v570.4c0 27.4 29.2 44 51.8 29.6l444.2-285.2c21.2-13.6 21.2-45.4 0-59l-444.2-285.2c-22.6-14.6-51.8 2.2-51.8 29.4z" />
<glyph unicode="&#xea0c;" glyph-name="plus" data-tags="plus" d="M896 384h-320v-320h-128v320h-320v128h320v320h128v-320h320v-128z" />
<glyph unicode="&#xea0d;" glyph-name="plus-alt" data-tags="plus.alt" d="M768 384h-192v-192h-128v192h-192v128h192v192h128v-192h192v-128z" />
<glyph unicode="&#xea0e;" glyph-name="postcard" d="M960 832h-896c-35.2 0-64-28.8-64-64v-640c0-35.2 28.8-64 64-64h896c35.2 0 64 28.8 64 64v640c0 35.2-28.8 64-64 64zM896 192h-768v512h768v-512zM832 384h-192v192h192v-192zM512 512h-320v64h320v-64zM192 384h320v-64h-320v64z" />
</font>
</defs>
</svg>
